Тепло наших тел / Warm Bodies (Джонатан Левин / Jonathan Levine) [2013, США, Ужасы, мелодрама, комедия, HDRip] Dub + Original Eng

Ответить на тему
 
Автор Сообщение

user ®

Стаж: 7 лет 7 месяцев

Сообщений: 20008

Пост Пост: #1 от 22-Сен-2013 14:35

[Цитировать]

Тепло наших тел / Warm Bodies - Страна: США
Жанр: Ужасы, мелодрама, комедия
Год выпуска: 2013
Продолжительность: 01:37:45-Перевод: Профессиональный (дублированный) НТВ+ [Кинорейс] (чистый звук)
Cубтитры: Hет
Оригинальная аудиодорожка: Aнглийский-Режиссер: Джонатан Левин / Jonathan Levine
В ролях: Николас Холт, Тереза Палмер, Аналей Типтон, Роб Кордри, Дэйв Франко, Джон Малкович, Кори Хардрикт, Дэниэл Риндресс-Кей, Винсент Леклерк, Клиффорд ЛеДюк-Вайанкур-Описание: Мир поражён чумой и стоит на грани вымирания. Покойники ходят по земле и норовят употребить в пищу живых, которые, оставшись в катастрофическом меньшинстве, с трудом держат оборону. Перемены начинаются, когда один зомби, чьё имя при жизни начиналось на «Р», спасает девушку вместо того, чтобы её съесть. Дружба, завязавшаяся между представителями враждующих сторон, грозит обоим самыми нехорошими последствиями. Но Р и Джули, сами того не подозревая, держат в руках простой и единственный ключ к спасению гибнущего мира.-Сэмпл | IMDb - 6.9 | КиноПоиск - 7.026-Качество видео: HDRip
Формат видео: AVI-Видео: XviD, 720x304, 23.98fps, 1612Kbps
Аудио 1: AC3, 48000Hz, 2ch, 192Kbps [Русский]
Аудио 2: AC3, 48000Hz, 2ch, 192Kbps [Английский]

MediaInfo

Общее
Полное имя : D:\3.Торренты\Teplo.nashih.tel.2013.D.HDRip.1400MB-TST.avi
Формат : AVI
Формат/Информация : Audio Video Interleave
Профиль формата : OpenDML
Настройки формата : rec
Размер файла : 1,37 Гбайт
Продолжительность : 1 ч. 37 м.
Общий поток : 2003 Кбит/сек
Программа кодирования : AVI-Mux GUI 1.17.8.3, Feb 16 201019:42:50
Видео
Идентификатор : 0
Формат : MPEG-4 Visual
Профиль формата : Advanced Simple@L5
Параметр BVOP формата : 2
Параметр QPel формата : Нет
Параметр GMC формата : Без точки перехода
Параметр матрицы формата : Default (MPEG)
Идентификатор кодека : XVID
Идентификатор кодека/Подсказка : XviD
Продолжительность : 1 ч. 37 м.
Битрейт : 1612 Кбит/сек
Ширина : 720 пикселей
Высота : 304 пикселя
Соотношение сторон : 2,35:1
Частота кадров : 23,976 кадра/сек
Цветовое пространство : YUV
Субдискретизация насыщенности : 4:2:0
Битовая глубина : 8 бит
Тип развёртки : Прогрессивная
Метод сжатия : С потерями
Бит/(Пиксели*Кадры) : 0.307
Размер потока : 1,10 Гбайт (80%)
Библиотека кодирования : XviD 1.2.1 (UTC 2008-12-04)
Аудио #1
Идентификатор : 1
Формат : AC-3
Формат/Информация : Audio Coding 3
Расширение режима : CM (complete main)
Параметр Endianness формата : Big
Идентификатор кодека : 2000
Продолжительность : 1 ч. 37 м.
Вид битрейта : Постоянный
Битрейт : 192 Кбит/сек
Каналы : 2 канала
Расположение каналов : Front: L R
Частота : 48,0 КГц
Битовая глубина : 16 бит
Метод сжатия : С потерями
Размер потока : 134 Мбайт (10%)
Выравнивание : Соединение по промежуткам
Продолжительность промежутка : 64 мс. (1,53 видеокадра)
Время предзагрузки промежутка : 192 мс.
Аудио #2
Идентификатор : 2
Формат : AC-3
Формат/Информация : Audio Coding 3
Расширение режима : CM (complete main)
Параметр Endianness формата : Big
Идентификатор кодека : 2000
Продолжительность : 1 ч. 37 м.
Вид битрейта : Постоянный
Битрейт : 192 Кбит/сек
Каналы : 2 канала
Расположение каналов : Front: L R
Частота : 48,0 КГц
Битовая глубина : 16 бит
Метод сжатия : С потерями
Размер потока : 134 Мбайт (10%)
Выравнивание : Соединение по промежуткам
Продолжительность промежутка : 64 мс. (1,53 видеокадра)
Время предзагрузки промежутка : 192 мс.

Скриншот c названием фильма

Скриншоты


Скачать

Скачать торрент!

Как скачивать? · Что такое торрент? · Рейтинг и ограничения

Сайт не распространяет и не хранит электронные версии произведений, а лишь предоставляет доступ к создаваемому пользователями каталогу ссылок на торрент-файлы, которые содержат только списки хеш-сумм

[Профиль] [ЛС]
Показать сообщения:    
Ответить на тему

Текущее время: Сегодня 21:55

Часовой пояс: GMT + 4



Вы не можете начинать темы
Вы не можете отвечать на сообщения
Вы не можете редактировать свои сообщения
Вы не можете удалять свои сообщения
Вы не можете голосовать в опросах
Вы не можете прикреплять файлы к сообщениям
Вы не можете скачивать файлы