Целуя девушек / Kiss the Girls (Гэри Фледер / Gary Fleder) [1997, США, триллер, драма, криминал, детектив, BDRemux 1080p] MVO (iTunes) + 2xDVO + 2xAVO (А. Гаврилов, А. Кашкин) + Sub Rus, Eng + Original Eng

Ответить на тему
 
Автор Сообщение

user ®

Стаж: 7 лет 7 месяцев

Сообщений: 20008

Пост Пост: #1 от 22-Сен-2013 05:05

[Цитировать]

Целуя девушек / Kiss the Girls
-
Страна: США
Студия: Paramount Pictures
Жанр: триллер, драма, криминал, детектив
Год выпуска: 1997
Продолжительность: 01:55:36
Перевод: Профессиональный (многоголосый закадровый) (iTunes)
Перевод 2: Профессиональный (двухголосый закадровый) (НТВ+)
Перевод 3: Профессиональный (двухголосый закадровый)
Перевод 4: Авторский (одноголосый закадровый) (А. Гаврилов)
Перевод 5: Авторский (одноголосый закадровый) (А. Кашкин)
Cубтитры: Русские, английские
Оригинальная аудиодорожка: английский
-
Режиссер: Гэри Фледер / Gary Fleder
Сценарий: Дэвид Класс, Джеймс Паттерсон
Продюсер: Дэвид Браун, Джо Уайзен, С. Эриксон
Композитор: Марк Айшем
Художник: Нельсон Коутс, Джозеф А. Ходжес, Эбигейл Мюррэй
В ролях: Морган Фриман, Эшли Джадд, Кэри Элвис, Алекс МакАртур, Тони Голдуин, Джей О. Сэндерс, Билл Нанн, Брайан Кокс, Ричард Т. Джонс, Рома Маффиа
Описание: Похищено восемь молодых красивых и талантливых женщин. Все они могут погибнуть, если полицейский Алекс Кросс и свидетельница Кейт Мактайернан не смогут обнаружить логово неуловимого маньяка, который называет себя Казанова.
От городков Дальнего Юга до побережья Калифорнии разворачивается охота. Энергичной свидетельнице Мактайрнан единственной удалось вырваться из лап Казановы, и теперь ее цель — освободить оставшуюся в секретном логове подругу.
-
Мировая Премьера: 10 сентября 1997
Бюджет: $27 000 000
Сборы в США: $60 527 873
IMDB: http://www.imdb.com/title/tt0119468/?ref_=fn_al_tt_1
Kinopoisk: http://www.kinopoisk.ru/film/1719/
Сэмпл: http://rusfolder.com/38124461
-
Тип релиза: BDRemux 1080p
Контейнер: MKV
Видео: MPEG-4 AVC, 33.9 Мбит/с, 1920x1080, 23.976 кадр/с
Аудио: Russian / AC3 / 6 ch / 384 Кбит/с (Профессиональный многоголосый, iTunes)
Аудио 2: Russian / AC3 / 6 ch / 448 Кбит/с (Профессиональный двухголосый, НТВ+)
Аудио 3: Russian / AC3 / 6 ch / 448 Кбит/с (Профессиональный двухголосый)
Аудио 4: Russian / AC3 / 6 ch / 448 Кбит/с (Авторский одноголосый, А. Гаврилов)
Аудио 5: Russian / AC3 / 2 ch / 192 Кбит/с (Авторский одноголосый, А. Кашкин)
Аудио 6: English / DTS-HD Master Audio / 5.1 / 48 kHz / 4015 kbps / 24-bit (DTS Core: 5.1 / 48 kHz / 1509 kbps / 24-bit)

MediaInfo

Общее
Уникальный идентификатор : 175107050528376492605993030135604617013 (0x83BC64263F106F7EBB906E018ECC9F35)
Полное имя : E:\Художественные Фильмы\Kiss.the.Girls.1997.BD-Remux.mkv
Формат : Matroska
Версия формата : Version 4 / Version 2
Размер файла : 32,1 Гбайт
Продолжительность : 1 ч. 55 м.
Режим общего битрейта : Переменный
Общий поток : 39,7 Мбит/сек
Название фильма : Respector
Дата кодирования : UTC 2013-09-08 12:39:52
Программа кодирования : mkvmerge v6.1.0 ('Old Devil') built on Mar 4 2013 09:10:42
Библиотека кодирования : libebml v1.3.0 + libmatroska v1.4.0
Видео
Идентификатор : 1
Формат : AVC
Формат/Информация : Advanced Video Codec
Профиль формата : High@L4.1
Параметр CABAC формата : Да
Параметр ReFrames формата : 4 кадра
Идентификатор кодека : V_MPEG4/ISO/AVC
Продолжительность : 1 ч. 55 м.
Вид битрейта : Переменный
Максимальный битрейт : 36,0 Мбит/сек
Ширина : 1920 пикселей
Высота : 1080 пикселей
Соотношение сторон : 16:9
Режим частоты кадров : Постоянный
Частота кадров : 23,976 кадра/сек
Цветовое пространство : YUV
Субдискретизация насыщенности : 4:2:0
Битовая глубина : 8 бит
Тип развёртки : Прогрессивная
Язык : English
Default : Да
Forced : Нет
Аудио #1
Идентификатор : 2
Формат : AC-3
Формат/Информация : Audio Coding 3
Расширение режима : CM (complete main)
Параметр Endianness формата : Big
Идентификатор кодека : A_AC3
Продолжительность : 1 ч. 55 м.
Вид битрейта : Постоянный
Битрейт : 384 Кбит/сек
Каналы : 6 каналов
Расположение каналов : Front: L C R, Side: L R, LFE
Частота : 48,0 КГц
Битовая глубина : 16 бит
Метод сжатия : С потерями
Размер потока : 318 Мбайт (1%)
Заголовок : MVO-iTunes
Язык : Russian
Default : Да
Forced : Да
Аудио #2
Идентификатор : 3
Формат : AC-3
Формат/Информация : Audio Coding 3
Расширение режима : CM (complete main)
Параметр Endianness формата : Big
Идентификатор кодека : A_AC3
Продолжительность : 1 ч. 55 м.
Вид битрейта : Постоянный
Битрейт : 448 Кбит/сек
Каналы : 6 каналов
Расположение каналов : Front: L C R, Side: L R, LFE
Частота : 48,0 КГц
Битовая глубина : 16 бит
Метод сжатия : С потерями
Размер потока : 370 Мбайт (1%)
Заголовок : DVO-HTB+
Язык : Russian
Default : Нет
Forced : Нет
Аудио #3
Идентификатор : 4
Формат : AC-3
Формат/Информация : Audio Coding 3
Расширение режима : CM (complete main)
Параметр Endianness формата : Big
Идентификатор кодека : A_AC3
Продолжительность : 1 ч. 55 м.
Вид битрейта : Постоянный
Битрейт : 448 Кбит/сек
Каналы : 6 каналов
Расположение каналов : Front: L C R, Side: L R, LFE
Частота : 48,0 КГц
Битовая глубина : 16 бит
Метод сжатия : С потерями
Размер потока : 370 Мбайт (1%)
Заголовок : DVO
Язык : Russian
Default : Нет
Forced : Нет
Аудио #4
Идентификатор : 5
Формат : AC-3
Формат/Информация : Audio Coding 3
Расширение режима : CM (complete main)
Параметр Endianness формата : Big
Идентификатор кодека : A_AC3
Продолжительность : 1 ч. 55 м.
Вид битрейта : Постоянный
Битрейт : 448 Кбит/сек
Каналы : 6 каналов
Расположение каналов : Front: L C R, Side: L R, LFE
Частота : 48,0 КГц
Битовая глубина : 16 бит
Метод сжатия : С потерями
Размер потока : 370 Мбайт (1%)
Заголовок : Gavrilov
Язык : Russian
Default : Нет
Forced : Нет
Аудио #5
Идентификатор : 6
Формат : AC-3
Формат/Информация : Audio Coding 3
Расширение режима : CM (complete main)
Параметр Endianness формата : Big
Идентификатор кодека : A_AC3
Продолжительность : 1 ч. 55 м.
Вид битрейта : Постоянный
Битрейт : 192 Кбит/сек
Каналы : 2 канала
Расположение каналов : Front: L R
Частота : 48,0 КГц
Битовая глубина : 16 бит
Метод сжатия : С потерями
Размер потока : 159 Мбайт (0%)
Заголовок : Kachkin
Язык : Russian
Default : Нет
Forced : Нет
Аудио #6
Идентификатор : 7
Формат : DTS
Формат/Информация : Digital Theater Systems
Профиль формата : MA / Core
Режим : 16
Параметр Endianness формата : Big
Идентификатор кодека : A_DTS
Продолжительность : 1 ч. 55 м.
Вид битрейта : Переменный
Битрейт : Неизвестно / 1509 Кбит/сек
Каналы : 6 каналов
Расположение каналов : Front: L C R, Side: L R, LFE
Частота : 48,0 КГц
Битовая глубина : 24 бит
Метод сжатия : Без потерь / Lossy
Язык : English
Default : Нет
Forced : Нет
Текст #1
Идентификатор : 8
Формат : UTF-8
Идентификатор кодека : S_TEXT/UTF8
Идентификатор кодека/Информация : UTF-8 Plain Text
Язык : Russian
Default : Нет
Forced : Нет
Текст #2
Идентификатор : 9
Формат : UTF-8
Идентификатор кодека : S_TEXT/UTF8
Идентификатор кодека/Информация : UTF-8 Plain Text
Язык : English
Default : Нет
Forced : Нет
Меню
00:00:00.000 : :Chapter 01
00:02:31.151 : :Chapter 02
00:07:45.715 : :Chapter 03
00:10:00.224 : :Chapter 04
00:11:13.756 : :Chapter 05
00:19:16.530 : :Chapter 06
00:23:37.874 : :Chapter 07
00:24:59.873 : :Chapter 08
00:29:10.206 : :Chapter 09
00:32:42.752 : :Chapter 10
00:36:04.328 : :Chapter 11
00:38:06.367 : :Chapter 12
00:40:59.957 : :Chapter 13
00:43:34.320 : :Chapter 14
00:48:11.096 : :Chapter 15
00:53:24.826 : :Chapter 16
00:55:58.438 : :Chapter 17
00:59:20.765 : :Chapter 18
01:02:31.706 : :Chapter 19
01:07:51.650 : :Chapter 20
01:11:04.635 : :Chapter 21
01:15:28.857 : :Chapter 22
01:18:48.890 : :Chapter 23
01:25:22.826 : :Chapter 24
01:36:29.867 : :Chapter 25
01:39:23.791 : :Chapter 26
01:55:36.304 : :Chapter 27

Скриншоты

Скачать

Скачать торрент!

Как скачивать? · Что такое торрент? · Рейтинг и ограничения

Сайт не распространяет и не хранит электронные версии произведений, а лишь предоставляет доступ к создаваемому пользователями каталогу ссылок на торрент-файлы, которые содержат только списки хеш-сумм

[Профиль] [ЛС]
Показать сообщения:    
Ответить на тему

Текущее время: Сегодня 10:46

Часовой пояс: GMT + 4



Вы не можете начинать темы
Вы не можете отвечать на сообщения
Вы не можете редактировать свои сообщения
Вы не можете удалять свои сообщения
Вы не можете голосовать в опросах
Вы не можете прикреплять файлы к сообщениям
Вы не можете скачивать файлы