Монтаж / Montage (Чон Гын Соп / Jeong Geun Seop) [2013, Южная Корея, Триллер, HDRip] DVO

Ответить на тему
 
Автор Сообщение

user ®

Стаж: 11 лет

Сообщений: 15151

Пост Пост: #1 от 21-Сен-2013 17:20

[Цитировать]

Монтаж / Montage
Год выпуска: 2013
Страна: Южная Корея
Жанр: Триллер
Продолжительность: 01:57:53
Озвучено: Любительский (двухголосый, закадровый) DeadSno & den904
Перевод: Skyworker
Работа со звуком: КОЛОБОК
Режиссёр: Чон Гын Соп / Jeong Geun Seop
В ролях: Ом Чон Хва, Ким Сан Кён, Сон Ён Чан, Чо Хи Бон, Ю Сын Мок, Ли Чжун Хёк, Пак Чоль Мин...
Описание: 15 лет назад была похищена девочка, и похититель исчез без следа. За пять дней до момента окончания срока давности привлечения к уголовной ответственности похитителя, кто-то оставляет цветок на месте того совершенного 15 лет назад преступления. Несколько дней спустя таким же способом было совершено еще одно похищение. Теперь, три человека пытаются любым способом найти похитителя: мать, чья дочь была похищена 15 лет назад; дедушка, внучку которого украли практически у него на глазах, и детектив, который расследовал первое похищение.

Релиз группы: &

Качество: HDRip
Формат: AVI
Видео кодек: DivX 5.0
Аудио кодек: AC3
Видео: DivX 5.0, 720x392 (1.84:1), 16:9, 23.976fps, 1530 kb/s, 0.226 bits/pixel
Аудио : AC3, 48 kHz, 64/ch, 128 kbps

Скриншоты

MI

Complete name                            : Montaj.2013.HDTVRip.XviD.AC-3.L.1400MB.avi
Format                                   : AVI
Format/Info                              : Audio Video Interleave
File size                                : 1.37 GiB
Duration                                 : 1h 57mn
Overall bit rate                         : 1 664 Kbps
Writing application                      : VirtualDubMod 1.5.10.2 (build 2540/release)
Writing library                          : VirtualDubMod build 2540/release
Video
ID                                       : 0
Format                                   : MPEG-4 Visual
Format profile                           : Advanced Simple@L5
Format settings, BVOP                    : 2
Format settings, QPel                    : No
Format settings, GMC                     : No warppoints
Format settings, Matrix                  : Default (MPEG)
Codec ID                                 : DX50
Codec ID/Hint                            : DivX 5
Duration                                 : 1h 57mn
Bit rate                                 : 1 526 Kbps
Width                                    : 720 pixels
Height                                   : 392 pixels
Display aspect ratio                     : 1.85:1
Frame rate                               : 23.976 fps
Color space                              : YUV
Chroma subsampling                       : 4:2:0
Bit depth                                : 8 bits
Scan type                                : Progressive
Compression mode                         : Lossy
Bits/(Pixel*Frame)                       : 0.226
Stream size                              : 1.26 GiB (92%)
Writing library                          : XviD 1.2.1 (UTC 2008-12-04)
Audio
ID                                       : 1
Format                                   : AC-3
Format/Info                              : Audio Coding 3
Mode extension                           : CM (complete main)
Format settings, Endianness              : Big
Codec ID                                 : 2000
Duration                                 : 1h 57mn
Bit rate mode                            : Constant
Bit rate                                 : 128 Kbps
Channel(s)                               : 2 channels
Channel positions                        : Front: L R
Sampling rate                            : 48.0 KHz
Bit depth                                : 16 bits
Compression mode                         : Lossy
Stream size                              : 108 MiB (8%)
Alignment                                : Split accross interleaves
Interleave, duration                     : 42 ms (1.00 video frame)
Interleave, preload duration             : 500 ms
Скачать

Скачать торрент! Монтаж / Montage (Чон Гын Соп / Jeong Geun Seop) [2013, Южная Корея, Триллер, HDRip] DVO

Как скачивать? · Что такое торрент? · Рейтинг и ограничения

Сайт не распространяет и не хранит электронные версии произведений, а лишь предоставляет доступ к создаваемому пользователями каталогу ссылок на торрент-файлы, которые содержат только списки хеш-сумм

[Профиль] [ЛС]
Показать сообщения:    
Ответить на тему

Текущее время: Сегодня 16:32

Часовой пояс: GMT + 4



Вы не можете начинать темы
Вы не можете отвечать на сообщения
Вы не можете редактировать свои сообщения
Вы не можете удалять свои сообщения
Вы не можете голосовать в опросах
Вы не можете прикреплять файлы к сообщениям
Вы не можете скачивать файлы