Шуб–баба Люба! (Максим Воронков) [2000, комедия, SATRip]

Ответить на тему
 
Автор Сообщение

user ®

Стаж: 7 лет 7 месяцев

Сообщений: 20008

Пост Пост: #1 от 21-Сен-2013 09:35

[Цитировать]

Шуб–баба Люба!
Жанр: комедия
Год выпуска: 2000
Продолжительность: 01:19:24
Режиссёр: Максим Воронков
В ролях: Лариса Удовиченко, Виктор Степанов, Петр Ульянов, Виктор Борцов, Елена Бушуева, Сергей Баталов, Сергей Матюхин, Татьяна Кравченко, Маша Удовиченко, Илья Рутберг, Виктор Борцов, Владимир Пермяков, Кирилл Гусев, Владислав Рощин, Олег Булыгин, Виталий Альшанский, Галина Стаханова
Описание:
К старшекласснику Володе Сидорову приезжает из Надыма любимый дед Егор Кузьмич и привозит в подарок кристалл размером с голову младенца. Внук и дед относят кристалл в скупку и запрашивают за него триста. И им отваливают триста...- СЭМПЛ-Качество видео: SATRip
Формат видео: AVI
Видео: 688x528 (1.30:1), 25 fps, XviD build 65 ~1772 kbps avg, 0.20 bit/pixel
Аудио: 48 kHz, AC3 Dolby Digital, 2/0 (L,R) ch, ~192 kbps

Скриншоты

MediaInfo

GeneralComplete name : Shub.baba.Lyuba!_Olu6ka.aviFormat : AVIFormat/Info : Audio Video InterleaveFile size : 1.10 GiBDuration : 1h 19mnOverall bit rate : 1 974 Kbps
VideoID : 0Format : MPEG-4 VisualFormat profile : Advanced Simple@L5Format settings, BVOP : 1Format settings, QPel : NoFormat settings, GMC : No warppointsFormat settings, Matrix : CustomCodec ID : XVIDCodec ID/Hint : XviDDuration : 1h 19mnBit rate : 1 773 KbpsWidth : 688 pixelsHeight : 528 pixelsDisplay aspect ratio : 4:3Frame rate : 25.000 fpsColor space : YUVChroma subsampling : 4:2:0Bit depth : 8 bitsScan type : ProgressiveCompression mode : LossyBits/(Pixel*Frame) : 0.195Stream size : 1 007 MiB (90%)Writing library : XviD 65
AudioID : 1Format : AC-3Format/Info : Audio Coding 3Mode extension : CM (complete main)Format settings, Endianness : BigCodec ID : 2000Duration : 1h 19mnBit rate mode : ConstantBit rate : 192 KbpsChannel(s) : 2 channelsChannel positions : Front: L RSampling rate : 48.0 KHzBit depth : 16 bitsCompression mode : LossyStream size : 109 MiB (10%)Alignment : Split accross interleavesInterleave, duration : 40 ms (1.00 video frame)Interleave, preload duration : 500 ms

Сравнение


[url=http://***/forum/viewtopic.php?t=358471]http://***/forum/viewtopic.php?t=358471[/url]
http://screenshotcomparison.com/comparison/41785/picture:3
Спасибо dean10 за исходник!Релиз от группы
Скачать

Скачать торрент!

Как скачивать? · Что такое торрент? · Рейтинг и ограничения

Сайт не распространяет и не хранит электронные версии произведений, а лишь предоставляет доступ к создаваемому пользователями каталогу ссылок на торрент-файлы, которые содержат только списки хеш-сумм

[Профиль] [ЛС]
Показать сообщения:    
Ответить на тему

Текущее время: Сегодня 09:54

Часовой пояс: GMT + 4



Вы не можете начинать темы
Вы не можете отвечать на сообщения
Вы не можете редактировать свои сообщения
Вы не можете удалять свои сообщения
Вы не можете голосовать в опросах
Вы не можете прикреплять файлы к сообщениям
Вы не можете скачивать файлы