Советы о дружбе от Берта и Арни / Bert and Arnie's Guide to Friendship (Джефф Кэплан / Jeff Kaplan) [2013, США, комедия, DVB] DVO (НТВ+)

Ответить на тему
 
Автор Сообщение

user ®

Стаж: 7 лет 7 месяцев

Сообщений: 20008

Пост Пост: #1 от 21-Сен-2013 09:35

[Цитировать]

Советы о дружбе от Берта и Арни
Bert and Arnie's Guide to Friendship- Страна: США
Жанр: комедия
Год выпуска: 2013
Продолжительность: 01:23:30Перевод: Профессиональный (двухголосый закадровый) (НТВ+, перевод Екатерины Смольской,
текст читают Ольга Плетнева, Игорь Тарадайкин)
Cубтитры: нет
Оригинальная аудиодорожка: нет
Режиссер: Джефф Кэплан / Jeff Kaplan
В ролях: Мэтт Оберг / Matt Oberg (Bert), Стивен Шнайдер / Stephen Schneider (Arnie), Анна Кламски / Anna Chlumsky (Sabrina)
Описание: История о том, как двое совершенно разных по характеру мужчин – писатель-романист и маркетинговый аналитик и ловелас, изрядно напакостив друг другу, всё же становятся лучшими друзьями. (анонс канала "Премьера")
Доп. информация: Запись со спутника (телеканал "Премьера").
Награды: награда Cityscape Award - Big Apple Film Festival 2012; приз за лучший фильм Hoboken International Film Festival 2012; приз за лучший иностранный фильм London Independent Film Festival 2012; награда оператору Williamsburg Brooklyn Film Festival 2012.
Информация: http://www.imdb.com/title/tt1990420/
Сэмпл: http://multi-up.com/905143
Качество видео: DVB
Формат видео: MPEG-PS
Видео: MPEG Video 2, 720x576@1024x576 (16:9), 25 fps, ~1797 kbps avg, 0.173 bit/pixel
Аудио: 48 kHz, MPEG Audio 2, 2 ch, ~192.00 kbps avg

MediaInfo

Полное имя : H:\My Torrents\[apreder]Bert_and_Arnie's_Guide_to_Friendship(2013)DVB.mpgФормат : MPEG-PSРазмер файла : 1,18 ГбайтПродолжительность : 1 ч. 23 м.Режим общего битрейта : ПеременныйОбщий поток : 2029 Кбит/сек
ВидеоИдентификатор : 224 (0xE0)Формат : MPEG VideoВерсия формата : Version 2Профиль формата : Main@MainПараметр BVOP формата : ДаПараметр матрицы формата : ВыборочнаяПараметр GOP формата : M=3, N=36Продолжительность : 1 ч. 23 м.Вид битрейта : ПеременныйБитрейт : 1797 Кбит/секШирина : 720 пикселейВысота : 576 пикселейСоотношение сторон : 16:9Частота кадров : 25,000 кадров/секСтандарт вещания : PALЦветовое пространство : YUVСубдискретизация насыщенности : 4:2:0Битовая глубина : 8 битТип развёртки : ЧересстрочнаяПорядок развёртки : Верхнее поле первоеМетод сжатия : С потерямиБит/(Пиксели*Кадры) : 0.173TimeCode_FirstFrame : 00:00:00:00TimeCode_Source : Group of pictures headerРазмер потока : 1,05 Гбайт (89%)
АудиоИдентификатор : 192 (0xC0)Формат : MPEG AudioВерсия формата : Version 1Профиль формата : Layer 2Продолжительность : 1 ч. 23 м.Вид битрейта : ПостоянныйБитрейт : 192 Кбит/секКаналы : 2 каналаЧастота : 48,0 КГцМетод сжатия : С потерямиРазмер потока : 115 Мбайт (9%)

Скриншот c названием фильма

Скриншоты


Резервные скриншоты


-976/958√
Скачать

Скачать торрент!

Как скачивать? · Что такое торрент? · Рейтинг и ограничения

Сайт не распространяет и не хранит электронные версии произведений, а лишь предоставляет доступ к создаваемому пользователями каталогу ссылок на торрент-файлы, которые содержат только списки хеш-сумм

[Профиль] [ЛС]
Показать сообщения:    
Ответить на тему

Текущее время: Сегодня 00:22

Часовой пояс: GMT + 4



Вы не можете начинать темы
Вы не можете отвечать на сообщения
Вы не можете редактировать свои сообщения
Вы не можете удалять свои сообщения
Вы не можете голосовать в опросах
Вы не можете прикреплять файлы к сообщениям
Вы не можете скачивать файлы