На море (Гиви Касрадзе) [1976, Грузия-фильм, кукольная анимация, TeleSynch]

Ответить на тему
 
Автор Сообщение

user ®

Стаж: 7 лет 7 месяцев

Сообщений: 20008

Пост Пост: #1 от 21-Сен-2013 00:05

[Цитировать]

На море
Страна: СССР
Жанр: кукольная анимация
Продолжительность: 00:05:55
Год выпуска: 1976
Русские субтитры: нет
Режиссёр: Гиви Касрадзе
Описание: Мальчик плыл на лодке по морю. Вдруг он выловил бутылку, в которой обнаружил сигнал о помощи. Мальчик тут-же бросился на выручку. Но выяснилось, что его обманули пираты, чтобы обманом заманить на свой корабль. Но мальчик не растерялся, и легко расправился с пиратами
Доп. информация: Фильм оцифрован с киноплёнки 16-мм из личной коллекции. Качество изображения очень низкое, так как плёнка сильно повреждена, но другой версии этого мультфильма я в сети не обнаружил.
Качество: TeleSynch
Формат: MPG
Видео: 720x576 (4:3), 25.000 fps, MPEG-2 Video, ~7452 Kbps, 0.719 bits/pixel
Аудио: 48.0 KHz, AC3, 2 ch (dual mono), 256 Kbps
Субтитры: отсутствуют

Подробные технические данные

GeneralComplete name : На море (Грузия-фильм) 1976.mpgFormat : MPEG-PSFile size : 332 MiBDuration : 5mn 54sOverall bit rate mode : VariableOverall bit rate : 7 865 Kbps
VideoID : 224 (0xE0)Format : MPEG VideoFormat version : Version 2Format profile : Main@MainFormat settings, BVOP : YesFormat settings, Matrix : DefaultFormat settings, GOP : N=12Duration : 5mn 54sBit rate mode : VariableBit rate : 7 500 KbpsWidth : 720 pixelsHeight : 576 pixelsDisplay aspect ratio : 4:3Frame rate : 25.000 fpsStandard : PALColor space : YUVChroma subsampling : 4:2:0Bit depth : 8 bitsScan type : InterlacedScan order : Top Field FirstCompression mode : LossyBits/(Pixel*Frame) : 0.723Time code of first frame : 00:00:00:00Time code source : Group of pictures headerStream size : 315 MiB (95%)Color primaries : BT.601 PALTransfer characteristics : BT.470 System B, BT.470 System GMatrix coefficients : BT.601
AudioID : 189 (0xBD)-128 (0x80)Format : AC-3Format/Info : Audio Coding 3Mode extension : CM (complete main)Format settings, Endianness : BigMuxing mode : DVD-VideoDuration : 5mn 54sBit rate mode : ConstantBit rate : 256 KbpsChannel(s) : 2 channelsChannel positions : Front: L RSampling rate : 48.0 KHzBit depth : 16 bitsCompression mode : LossyStream size : 10.8 MiB (3%)

Скриншоты

Скачать

Скачать торрент!

Как скачивать? · Что такое торрент? · Рейтинг и ограничения

Сайт не распространяет и не хранит электронные версии произведений, а лишь предоставляет доступ к создаваемому пользователями каталогу ссылок на торрент-файлы, которые содержат только списки хеш-сумм

[Профиль] [ЛС]
Показать сообщения:    
Ответить на тему

Текущее время: Сегодня 02:28

Часовой пояс: GMT + 4



Вы не можете начинать темы
Вы не можете отвечать на сообщения
Вы не можете редактировать свои сообщения
Вы не можете удалять свои сообщения
Вы не можете голосовать в опросах
Вы не можете прикреплять файлы к сообщениям
Вы не можете скачивать файлы