Арба (Л. Бабаханов) [1978, Узбекфильм, кукольная анимация, TeleSynch]

Ответить на тему
 
Автор Сообщение

user ®

Стаж: 7 лет 7 месяцев

Сообщений: 20008

Пост Пост: #1 от 21-Сен-2013 00:05

[Цитировать]

Арба
Страна: СССР
Жанр: кукольная анимация
Продолжительность: 00:09:22
Год выпуска: 1978
Русские субтитры: нет
Режиссёр: Л. Бабаханов
Описание: Старик ехал на арбе на базар. Дорога пролегала через гору и лошадь начала упираться и отказалась тянуть арбу. Старик всячески пытался заставить лошадь подняться в гору, но так ничего и не смог поделать. И только с помощью доброты и взаимопомощи старику удалось переправиться через гору.
Доп. информация: Фильм оцифрован с киноплёнки 16-мм из личной коллекции. Качество картинки очень низкое, плёнка сильно повреждена, но другого варианта этого мультфильма в сети нет.
Качество: TeleSynch
Формат: DVD-Video
Видео: PAL, 4:3
Аудио: АС-3, 2ch (моно)
Субтитры: отсутствуют

Подробные технические данные

ОбщееПолное имя : G:\Арба.VOBФормат : MPEG-PSРазмер файла : 531 МбайтПродолжительность : 13 с.Режим общего битрейта : ПеременныйОбщий поток : 333 Мбит/сек
ВидеоИдентификатор : 224 (0xE0)Формат : MPEG VideoВерсия формата : Version 2Профиль формата : Main@MainПараметр BVOP формата : ДаПараметр матрицы формата : По умолчаниюПараметр GOP формата : N=12Продолжительность : 13 с.Вид битрейта : ПеременныйБитрейт : 326 Мбит/секМаксимальный битрейт : 7500 Кбит/секШирина : 720 пикселейВысота : 576 пикселейСоотношение сторон : 4:3Частота кадров : 25,000 кадров/секСтандарт вещания : PALЦветовое пространство : YUVСубдискретизация насыщенности : 4:2:0Битовая глубина : 8 битТип развёртки : ЧересстрочнаяПорядок развёртки : Верхнее поле первоеМетод сжатия : С потерямиБит/(Пиксели*Кадры) : 31.447Временной код первого кадра : 00:00:00:00Оригинал временного кода : Group of pictures headerРазмер потока : 519 Мбайт (98%)Основные цвета : BT.601 PALХарактеристики трансфера : BT.470 System B, BT.470 System GКоэффициенты матрицы : BT.601
АудиоИдентификатор : 189 (0xBD)-128 (0x80)Формат : AC-3Формат/Информация : Audio Coding 3Расширение режима : CM (complete main)Параметр Endianness формата : BigРежим смешивания : DVD-VideoПродолжительность : 13 с.Вид битрейта : ПостоянныйБитрейт : 256 Кбит/секКаналы : 2 каналаРасположение каналов : Front: L RЧастота : 48,0 КГцБитовая глубина : 16 битМетод сжатия : С потерямиЗадержка видео : -80 мс.Размер потока : 412 Кбайт (0%)

Скриншоты

, ,
Скачать

Скачать торрент!

Как скачивать? · Что такое торрент? · Рейтинг и ограничения

Сайт не распространяет и не хранит электронные версии произведений, а лишь предоставляет доступ к создаваемому пользователями каталогу ссылок на торрент-файлы, которые содержат только списки хеш-сумм

[Профиль] [ЛС]
Показать сообщения:    
Ответить на тему

Текущее время: Сегодня 09:51

Часовой пояс: GMT + 4



Вы не можете начинать темы
Вы не можете отвечать на сообщения
Вы не можете редактировать свои сообщения
Вы не можете удалять свои сообщения
Вы не можете голосовать в опросах
Вы не можете прикреплять файлы к сообщениям
Вы не можете скачивать файлы