История / Dastan (Абдул Рашид Кардар / Abdur Rashid Kardar) [1950, Индия, мелодрама, DVDRip] Sub Rus

Ответить на тему
 
Автор Сообщение

user ®

Стаж: 12 лет

Сообщений: 15124

Пост Пост: #1 от 21-Сен-2013 00:05

[Цитировать]

История / Dastan
Страна: Индия
Жанр: мелодрама
Год выпуска: 1950
Продолжительность: 02:02:32
Перевод: Субтитры (kasmevaade@BwTorrents)
Cубтитры: русские
Оригинальная аудиодорожка: хинди
Режиссер: Абдул Рашид Кардар / Abdur Rashid Kardar
В ролях: Радж Капур, Сурайя, Вина, Суреш, Аль Насир, Пратима Деви, Мурад, С.Н. Банерджи, Лакшман
Описание: Обидно быть сиротой, а Индра - круглая сирота. Но ей повезло. Один богатый великодушный человек стал её опекуном, поселив в огромном доме вместе со своими детьми. Двое младших, братья Кундан и Радж, приняли её, как родную сестренку. Старшая сестра Рани с первой секунды возненавидела сиротку всем сердцем. Еще бы, какой-то выскочке отец отдал её комнату и велел относиться к безродной сироте, как к равной. Высокомерная и заносчивая Рани изводит отца своим упрямством. Скоропостижная смерть главы семейства меняет расстановку сил. Рани становится полновластной хозяйкой в доме.
Проходит время. Повзрослевшая красавица Индра вызывает глубокое чувство у обоих братьев. Правда, сердце её принадлежит Раджу, а о чувствах Кундана она не подозревает. Чтобы не допустить брака Индры с братом, Рани делает все возможное, чтобы друг Раджа, Рамеш, влюбился в Индру. Рани договаривается о свадьбе Индры и Рамеша, но встречает сопротивление девушки.
Доп. информация:
Качество видео: DVDRip (by ZenKoan@KG)
Формат видео: AVI
Видео: 640x480 (1.33:1), 23.976 fps, XviD build 46 ~1524 kbps avg, 0.21 bit/pixel
Аудио: 48 kHz, MPEG Layer 3, 2 ch, ~128.00 kbps avg
Формат субтитров: softsub (SRT)

MediaInfo

GeneralComplete name : ...\Dastan.1950.A.R.Kardar.aviFormat : AVIFormat/Info : Audio Video InterleaveFile size : 1.42 GiBDuration : 2h 2mnOverall bit rate : 1 662 KbpsWriting application : VirtualDubMod 1.5.4.1 (build 2178/release)Writing library : VirtualDubMod build 2178/release
VideoID : 0Format : MPEG-4 VisualFormat profile : Advanced Simple@L5Format settings, BVOP : 1Format settings, QPel : NoFormat settings, GMC : No warppointsFormat settings, Matrix : Default (MPEG)Codec ID : XVIDCodec ID/Hint : XviDDuration : 2h 2mnBit rate : 1 525 KbpsWidth : 640 pixelsHeight : 480 pixelsDisplay aspect ratio : 4:3Frame rate : 23.976 fpsColor space : YUVChroma subsampling : 4:2:0Bit depth : 8 bitsScan type : ProgressiveCompression mode : LossyBits/(Pixel*Frame) : 0.207Stream size : 1.31 GiB (92%)Writing library : XviD 1.1.2 (UTC 2006-11-01)
AudioID : 1Format : MPEG AudioFormat version : Version 1Format profile : Layer 3Mode : Joint stereoMode extension : MS StereoCodec ID : 55Codec ID/Hint : MP3Duration : 2h 2mnBit rate mode : ConstantBit rate : 128 KbpsChannel(s) : 2 channelsSampling rate : 48.0 KHzCompression mode : LossyStream size : 112 MiB (8%)Alignment : Aligned on interleavesInterleave, duration : 42 ms (1.00 video frame)Interleave, preload duration : 504 ms

Скриншоты

Фрагмент субтитров

1200:03:09,689 --> 00:03:12,658Она мертва, но до сих поркажется гордой и живой.
1300:03:14,527 --> 00:03:19,328Надменная голова, бровиподняты, как и прежде.
1400:03:20,366 --> 00:03:27,329Гнев и высокомерие, присущиеей при жизни, заметны и сейчас.
1500:03:30,043 --> 00:03:35,140Хотя, теперь у меня больше нетпретензий к моей покойной сестре.
1600:03:36,382 --> 00:03:40,341Но, Шамбху дада,люди не простили её.
1700:03:41,888 --> 00:03:46,848Возможно, поэтому никтоне пришел оплакать ее смерть.
1800:03:47,393 --> 00:03:50,851Никто не ступал в этот домпоследние 25 лет.
1900:03:51,064 --> 00:03:55,160И Рани также не стремиласьобщаться с кем-либо.
2000:03:55,401 --> 00:03:59,531В этом большом доме онабродила одна, как безумная.
2100:04:00,073 --> 00:04:06,706Перед смертью она сказала, чтотолько она одна будет правитьв доме своего отца.
2200:04:07,580 --> 00:04:12,040Её власть и привела к упадкуэтот дом.
2300:04:12,919 --> 00:04:16,719Что толку теперьдумать о прошлом?
2400:04:17,924 --> 00:04:20,392Иди распорядись о совершениипогребальных обрядов.
2500:04:26,933 --> 00:04:28,400Ты стала молчаливой.
2600:04:30,436 --> 00:04:36,568Королева, которая управляла этимдомом, теперь умолкла навсегда.
2700:04:38,444 --> 00:04:40,412Люди все забывают...
2800:04:41,948 --> 00:04:46,408но они никогда не забудутнашу печальную историю.
2900:04:49,255 --> 00:04:50,586Твое детство...
3000:04:52,458 --> 00:04:54,085твою злость...
3100:04:55,461 --> 00:04:56,928и твое высокомерие.
Скачать

Скачать торрент! История / Dastan (Абдул Рашид Кардар / Abdur Rashid Kardar) [1950, Индия, мелодрама, DVDRip] Sub Rus

Как скачивать? · Что такое торрент? · Рейтинг и ограничения

Сайт не распространяет и не хранит электронные версии произведений, а лишь предоставляет доступ к создаваемому пользователями каталогу ссылок на торрент-файлы, которые содержат только списки хеш-сумм

[Профиль] [ЛС]
Показать сообщения:    
Ответить на тему

Текущее время: Сегодня 22:00

Часовой пояс: GMT + 4



Вы не можете начинать темы
Вы не можете отвечать на сообщения
Вы не можете редактировать свои сообщения
Вы не можете удалять свои сообщения
Вы не можете голосовать в опросах
Вы не можете прикреплять файлы к сообщениям
Вы не можете скачивать файлы