Мерзлая земля / The Frozen Ground (Скотт Уокер / Scott Walker) [2013, США, триллер, криминал, биография, HDRip] Dub

Ответить на тему
 
Автор Сообщение

user ®

Стаж: 7 лет 7 месяцев

Сообщений: 20008

Пост Пост: #1 от 21-Сен-2013 00:05

[Цитировать]

Мерзлая земля / The Frozen Ground
Страна: США / Sakonnet Capital Partners, Valentina Films
Жанр: триллер, криминал, биография
Год выпуска: 2013
Продолжительность: 01:45:34
Перевод: Профессиональный (дублированный) (Не кинотеатральный)
Cубтитры: нет
Оригинальная аудиодорожка: нет
Режиссер: Скотт Уокер / Scott Walker
В ролях: Николас Кейдж, Джон Кьюсак, Ванесса Энн Хадженс, Дин Норрис, Рада Митчелл, Джоди Лин О’Кифи, Кэтрин ЛаНаса, Фифти Сент, Джина Мантенья, Мэтт Джералд
Описание: Все были уверены, что Роберт Хансен — приличный семьянин, владелец пекарни и славный охотник. Никто не подозревал, что на самом деле он — безжалостный маньяк, который похитил и убил более двадцати женщин. И только 17-летней Синди Полсон удалось сбежать от убийцы. Она наводит на след маньяка полицейского, который начинает опасное расследование. Ему никто не верит: Хансен — слишком приличный человек для такого обвинения… Но упорный коп знает свое дело и должен дойти до конца…


Сэмпл: http://multi-up.com/905173
Качество видео: HDRip (Исх. BDRip 720p)
Формат видео: AVI
Видео: 688x288 (2.39:1), 23.976 fps, XviD build 50 ~850 kbps avg, 0.18 bit/pixel
Аудио: 48 kHz, MPEG Layer 3, 2 ch, ~128.00 kbps avg

MediaInfo

Общее
Полное имя : S:\Фильмы\Мерзлая земля. 2013. HDRip (AleksSin).avi
Формат : AVI
Формат/Информация : Audio Video Interleave
Размер файла : 745 Мбайт
Продолжительность : 1 ч. 45 м.
Общий поток : 987 Кбит/сек
Программа кодирования : VirtualDubMod 1.5.10.3 | www.virtualdub-fr.org || (build 2550/release)
Библиотека кодирования : VirtualDubMod build 2550/release
Видео
Идентификатор : 0
Формат : MPEG-4 Visual
Профиль формата : Advanced Simple@L5
Параметр BVOP формата : 2
Параметр QPel формата : Нет
Параметр GMC формата : Без точки перехода
Параметр матрицы формата : Default (H.263)
Идентификатор кодека : XVID
Идентификатор кодека/Подсказка : XviD
Продолжительность : 1 ч. 45 м.
Битрейт : 850 Кбит/сек
Ширина : 688 пикс.
Высота : 288 пикс.
Соотношение сторон : 2,40:1
Частота кадров : 23,976 кадр/сек
Цветовое пространство : YUV
Подвыборка цветности : 4:2:0
Битовая глубина : 8 бит
Тип развёртки : Прогрессивная
Метод сжатия : С потерями
Бит/(Пиксели*Кадры) : 0.179
Размер потока : 642 Мбайт (86%)
Библиотека кодирования : XviD 1.2.1 (UTC 2008-12-04)
Аудио
Идентификатор : 1
Формат : MPEG Audio
Версия формата : Version 1
Профиль формата : Layer 3
Идентификатор кодека : 55
Идентификатор кодека/Подсказка : MP3
Продолжительность : 1 ч. 45 м.
Вид битрейта : Постоянный
Битрейт : 128 Кбит/сек
Каналы : 2 канала
Частота : 48,0 КГц
Метод сжатия : С потерями
Размер потока : 96,7 Мбайт (13%)
Выравнивание : Соединение по промежуткам
Продолжительность промежутка : 42 мс. (1,00 видеокадр)
Время предзагрузки промежутка : 504 ms
Библиотека кодирования : LAME3.99r
Настройки программы : -m s -V 4 -q 2 -lowpass 17 -b 128

Скриншот c названием фильма

Скриншоты

Скачать

Скачать торрент!

Как скачивать? · Что такое торрент? · Рейтинг и ограничения

Сайт не распространяет и не хранит электронные версии произведений, а лишь предоставляет доступ к создаваемому пользователями каталогу ссылок на торрент-файлы, которые содержат только списки хеш-сумм

[Профиль] [ЛС]
Показать сообщения:    
Ответить на тему

Текущее время: Сегодня 05:10

Часовой пояс: GMT + 4



Вы не можете начинать темы
Вы не можете отвечать на сообщения
Вы не можете редактировать свои сообщения
Вы не можете удалять свои сообщения
Вы не можете голосовать в опросах
Вы не можете прикреплять файлы к сообщениям
Вы не можете скачивать файлы