Связи нет / Disconnect (Генри Алекс Рубин / Henry Alex Rubin) [2012, США, Триллер, драма, BDRip 720p] DVO (Zelesk и Анна Завразина) + Subs (Rus, Eng, Esp) + Original (Eng)

Ответить на тему
 
Автор Сообщение

user ®

Стаж: 7 лет 7 месяцев

Сообщений: 20008

Пост Пост: #1 от 20-Сен-2013 18:35

[Цитировать]

Связи нет / Disconnect
Страна: США
Студия: Liddell Entertainment, Wonderful Films
Жанр: Триллер, драма
Год выпуска: 2012
Продолжительность: 01:55:39
Перевод: Любительский (двухголосый закадровый) Zelesk и Анна Завразина
Cубтитры: русские, английские, испанские
Оригинальная аудиодорожка: английский
Режиссер: Генри Алекс Рубин / Henry Alex Rubin
В ролях: Джейсон Бейтман, Хоуп Дэвис, Фрэнк Грилло, Микаэл Нюквист, Пола Пэттон, Андреа Райзборо, Александр Скарсгард, Макс Тириот, Колин Форд, Джона Бобо
Описание: Рассказ идет про группу современных людей, которые пытаются наладить взаимоотношения с окружающими на фоне «проводного» мира современных технологий. Это самая большая загадка человечества — почему новейшие технологии, призванные объединять людей, на самом деле создают огромную пропасть между ними.
Сэмпл: http://multi-up.com/904640
Тип релиза: BDRip 720p
Контейнер: MKV
Видео: Advanced Video Codec, 1280x690, V_MPEG4/ISO/AVC, 1.85:1, 5368 kbps, 23.976 fps
Аудио: Русский, AC-3, 48.0 KHz, 192 Kbps, 2 channels (L, R) - zelesk и Анна Завразина
Аудио 2: English, AC-3, 48.0 KHz, 640 Kbps, 6 channels (Front: L C R, Side: L R, LFE)
Аудио 3: English, AC-3, 48.0 KHz, 224 Kbps, 2 channels (L, R) - Commentary
Формат субтитров: softsub (SRT)

MediaInfo

Disconnect.2012.720p.BluRay.DD5.1.x264-EbP.mkv
General
Unique ID : 249488918569744960860396423834329304586 (0xBBB1D162542213F49C92CC86BDA24E0A)
Complete name : Disconnect.2012.720p.BluRay.DD5.1.x264-EbP.mkv
Format : Matroska
Format version : Version 4 / Version 2
File size : 5.30 GiB
Duration : 1h 55mn
Overall bit rate : 6 554 Kbps
Encoded date : UTC 2013-09-18 19:44:46
Writing application : mkvmerge v6.4.1 ('Omega Point') built on Sep 16 2013 22:05:10
Writing library : libebml v1.3.0 + libmatroska v1.4.1
Video #1
ID : 1
Format : AVC
Format/Info : Advanced Video Codec
Format profile : High@L4.1
Format settings, CABAC : Yes
Format settings, ReFrames : 9 frames
Codec ID : V_MPEG4/ISO/AVC
Duration : 1h 55mn
Bit rate : 5 368 Kbps
Width : 1 280 pixels
Height : 690 pixels
Display aspect ratio : 1.85:1
Frame rate mode : Constant
Frame rate : 23.976 fps
Color space : YUV
Chroma subsampling : 4:2:0
Bit depth : 8 bits
Scan type : Progressive
Bits/(Pixel*Frame) : 0.253
Stream size : 4.34 GiB (82%)
Title : Disconnect 2012
Language : English
Default : Yes
Forced : No
Audio #2
ID : 2
Format : AC-3
Format/Info : Audio Coding 3
Mode extension : CM (complete main)
Format settings, Endianness : Big
Codec ID : A_AC3
Duration : 1h 55mn
Bit rate mode : Constant
Bit rate : 192 Kbps
Channel(s) : 2 channels
Channel positions : Front: L R
Sampling rate : 48.0 KHz
Bit depth : 16 bits
Compression mode : Lossy
Stream size : 159 MiB (3%)
Title : Zelesk & Anna Zavrazina
Language : Russian
Default : Yes
Forced : No
Audio #3
ID : 3
Format : AC-3
Format/Info : Audio Coding 3
Mode extension : CM (complete main)
Format settings, Endianness : Big
Codec ID : A_AC3
Duration : 1h 55mn
Bit rate mode : Constant
Bit rate : 640 Kbps
Channel(s) : 6 channels
Channel positions : Front: L C R, Side: L R, LFE
Sampling rate : 48.0 KHz
Bit depth : 16 bits
Compression mode : Lossy
Stream size : 529 MiB (10%)
Language : English
Default : No
Forced : No
Audio #4
ID : 4
Format : AC-3
Format/Info : Audio Coding 3
Format profile : Dolby Digital
Mode extension : CM (complete main)
Format settings, Endianness : Big
Codec ID : A_AC3
Duration : 1h 55mn
Bit rate mode : Constant
Bit rate : 224 Kbps
Channel(s) : 2 channels
Channel positions : Front: L R
Sampling rate : 48.0 KHz
Bit depth : 16 bits
Compression mode : Lossy
Stream size : 185 MiB (3%)
Title : Commentary
Language : English
Default : No
Forced : No
Text #5
ID : 5
Format : UTF-8
Codec ID : S_TEXT/UTF8
Codec ID/Info : UTF-8 Plain Text
Title : Zelesk
Language : Russian
Default : Yes
Forced : No
Text #6
ID : 6
Format : UTF-8
Codec ID : S_TEXT/UTF8
Codec ID/Info : UTF-8 Plain Text
Language : English
Default : No
Forced : No
Text #7
ID : 7
Format : UTF-8
Codec ID : S_TEXT/UTF8
Codec ID/Info : UTF-8 Plain Text
Language : English
Default : No
Forced : No
Text #8
ID : 8
Format : UTF-8
Codec ID : S_TEXT/UTF8
Codec ID/Info : UTF-8 Plain Text
Language : Spanish
Default : No
Forced : No
Menu
00:00:00.000 : en:00:00:00.000
00:07:07.344 : en:00:07:07.344
00:13:45.158 : en:00:13:45.158
00:19:52.316 : en:00:19:52.316
00:24:54.868 : en:00:24:54.868
00:29:57.254 : en:00:29:57.254
00:37:49.267 : en:00:37:49.267
00:45:17.465 : en:00:45:17.465
00:51:18.450 : en:00:51:18.450
00:58:34.010 : en:00:58:34.010
01:04:35.622 : en:01:04:35.622
01:10:56.961 : en:01:10:56.961
01:17:00.199 : en:01:17:00.199
01:22:32.948 : en:01:22:32.948
01:31:25.438 : en:01:31:25.438
01:42:54.001 : en:01:42:54.001

Скриншоты

Скачать

Скачать торрент!

Как скачивать? · Что такое торрент? · Рейтинг и ограничения

Сайт не распространяет и не хранит электронные версии произведений, а лишь предоставляет доступ к создаваемому пользователями каталогу ссылок на торрент-файлы, которые содержат только списки хеш-сумм

[Профиль] [ЛС]
Показать сообщения:    
Ответить на тему

Текущее время: Сегодня 21:24

Часовой пояс: GMT + 4



Вы не можете начинать темы
Вы не можете отвечать на сообщения
Вы не можете редактировать свои сообщения
Вы не можете удалять свои сообщения
Вы не можете голосовать в опросах
Вы не можете прикреплять файлы к сообщениям
Вы не можете скачивать файлы