Вот мчится тройка почтовая (Чеслав Сабинский) [1915, Драма]

Ответить на тему
 
Автор Сообщение

user ®

Стаж: 7 лет 7 месяцев

Сообщений: 20008

Пост Пост: #1 от 20-Сен-2013 18:35

[Цитировать]

Вот мчится тройка почтовая
Жанр: Драма
Год выпуска: 1915
Продолжительность: 0:09:35
Режиссёр: Чеслав Сабинский
В ролях: Александр Вырубов (Иван, ямщик), В. Горская (Маша, его невеста), Николай Панов (помещик), Изборская (мать).
Описание: Драма. 3 части, 1200 метров.
Товарищество "И. Ермольев" (в самом фильме указана фирма "Братья Пате").
Выпуск 29.III.1915.
Сцен. и реж. Чеслав Сабинский.
Опер. Евгений Славинский.
Просто удивительно, какие интересные фильмы иногда можно обнаружить на Youtube'е.
В "Аннотированном каталоге сохранившихся игровых и мультипликационных фильмов России" сюжет фильма описан так:
Фильм воспроизводит сюжет популярной песни в следующих сценах:
1. Ямщик Иван везёт по снежной дороге пассажира и рассказывает ему историю своей жизни.
2. Деревенское гулянье. Иван увлекается девушкой Машей и приглашает её на танец.
3. Иван провожает Машу до дома и целует её.
4. Дома строгий отец ругает Машу.
5. Иван заходит в дом к Маше. Приходит отец. Он недоволен, и Иван уходит.
6. Поздним вечером, когда Иван уже спит, Иван подходит к её окну.
7. Маша одевается и выходит к нему на свидание. Они садятся на завалинку и целуются.
8. Увидевший их отец загоняет Машу в дом.
9. В дома Маши появляется сваха, и родители соглашаются выдать дочь замуж за сына богатого селянина.
10. Иван тоже сватает Машу, но получает отказ.
11. От горя он пьёт в кабаке.
12. Машу выдают за богатого парня. Свадьба.
13. Повторяется первый кадр: Иван рассказывает пассажира и рассказывает ему свою грустную историю.
Фильм сохранился не полностью; с голландскими титрами.
В данном фрагменте представлены сцены 1-7, 12.
Из "голландских титров" только вступительный титр с названием фильма и титр после 1-й сцены: "Деревенское гулянье".
В журнале "Сине-фоно" сюжет описан немного по-другому:
1. Идиллия на завалинке.
2. Доля ямщика...
3. В тиши обители святой...
Грустную песню поет ямщик... Злая тоска по любимой сердцу девушке точит его грудь... Крепко любили друг друга Старостина дочь Маша и лихой красавец ямщик... Первым красавцем по деревне считался Иван, не одна девица на него заглядывалась, но больше всех полюбилась ему Маша. Как он был счастлив и весел, когда в первый раз на праздничном хороводе крепко обнял ее и первый поцелуй обжег его губы... Но дни счастья минули... Не захотел отец сделать счастливой свою дочь, позарился он на богатство кабатчика, захотелось ему еще большего первенства по деревне. Когда пришел к нему Иван просить, чтобы он отдал за него свою дочь, как раз застал он у него сваху... Бросились они с Машей перед ним на колени, умоляя переменить решение... Не посмотрел старик на мольбу матери и дочери, обидные слова бросил он Ивану... Пал духом бедный Иван, не мил стал ему белый свет, любимых лошадей невзлюбил с тех пор Иван, не приносили ему уже больше отрады и веселые песни, звонко разносившиеся не один раз по раздольной дороге Волги-матушки реки... Вином заглушает он свое горе... Прощаясь последний раз с Машей, крепкие клятвы давали они друг другу вечно любить и не забывать друг друга... Весела деревенская свадьба, звонки веселые песни подруг, суливших счастье и златые горы молодым... Грустна одна лишь невеста... За немилого выдают ее замуж... Где-то Ваня ее... Но вот отворилась дверь хаты... Мрачный показался на пороге Иван... Толпа молча с ужасом расступилась перед ним... Что-то зловещее, не предвещавшее ничего хорошего, сверкнуло в его взгляде... «Ну-ка, старик, поднеси-ка чарку за здоровье молодых...» «Горько... Горько...» — раздалось со всех сторон... Свету невзвидел тут Иван, когда увидел, как жених приложился к губам его Маши... Острая бритва сверкнула в воздухе... Как подкошенный сноп свалился Иван к ногам молодых, и через минуту уже Маша лежала на груди его... Не мила стала с тех пор для Маши жизнь среди людей, и святая обитель, не отказывающая в помощи страждущим, приняла в свои стены еще одну болящую духом...
Б. Лихачёв писал о фильме:
Картину "Вот мчится тройка почтовая" следует особо отметить, так как при её постановке Сабинский впервые в России применил монтажный лист, являвшийся одновременно "железным сценарием". В этот монтажный лист, кроме подробного перечисления сцен и заметок о натурных и павильонных съёмок, заносилось также количество снятого метража рядом с предполагаемым. Это была первая попытка навести какой-то порядок в хаотические условия съёмок того времени.
Данный фильм является одним из 8 сохранившихся фильмов Сабинского (лишь один из которых сохранился полностью - "Гайда, тройка", 1913), а также единственным фильмом Сабинского на трекере (если не считать коллективной постановки "Молчи, грусть... молчи...").
Качество видео: неизвестно
Формат видео: AVI
Видео: 720x576 (1.25:1), 25 fps, Microsoft MPEG-4 Video Codec V2 ~1194 kbps avg, 0.12 bit/pixel
Аудио: 44.100 kHz, MPEG Layer 3, 2 ch, ~128.00 kbps avg

MediaInfo

General
Complete name : D:\Users\Ирина\Desktop\Vot mtsjitsja trojka potsjtovaja.avi
Format : AVI
Format/Info : Audio Video Interleave
File size : 91.5 MiB
Duration : 9mn 35s
Overall bit rate : 1 334 Kbps
Writing application : Lavf52.46.0
Video
ID : 0
Format : MPEG-4 Visual
Codec ID : MP42
Codec ID/Info : Microsoft MPEG-4 v2 (pre-standard)
Codec ID/Hint : Microsoft
Duration : 9mn 34s
Bit rate : 1 195 Kbps
Width : 720 pixels
Height : 576 pixels
Display aspect ratio : 5:4
Frame rate : 25.000 fps
Standard : PAL
Compression mode : Lossy
Bits/(Pixel*Frame) : 0.115
Stream size : 81.9 MiB (89%)
Audio
ID : 1
Format : MPEG Audio
Format version : Version 1
Format profile : Layer 3
Mode : Joint stereo
Mode extension : MS Stereo
Codec ID : 55
Codec ID/Hint : MP3
Duration : 9mn 35s
Bit rate mode : Constant
Bit rate : 128 Kbps
Channel(s) : 2 channels
Sampling rate : 44.1 KHz
Compression mode : Lossy
Stream size : 8.78 MiB (10%)
Alignment : Aligned on interleaves
Interleave, duration : 26 ms (0.65 video frame)
Скачать

Скачать торрент!

Как скачивать? · Что такое торрент? · Рейтинг и ограничения

Сайт не распространяет и не хранит электронные версии произведений, а лишь предоставляет доступ к создаваемому пользователями каталогу ссылок на торрент-файлы, которые содержат только списки хеш-сумм

[Профиль] [ЛС]
Показать сообщения:    
Ответить на тему

Текущее время: Сегодня 14:32

Часовой пояс: GMT + 4



Вы не можете начинать темы
Вы не можете отвечать на сообщения
Вы не можете редактировать свои сообщения
Вы не можете удалять свои сообщения
Вы не можете голосовать в опросах
Вы не можете прикреплять файлы к сообщениям
Вы не можете скачивать файлы