Саами / Saamy (Хари / Hari) [2003, Индия, Боевик, DVDRip] Rus Sub

Ответить на тему
 
Автор Сообщение

user ®

Стаж: 12 лет

Сообщений: 15125

Пост Пост: #1 от 20-Сен-2013 09:05

[Цитировать]

Саами / Saamy
-Страна: Индия
Жанр: Боевик
Год выпуска: 2003
Продолжительность: 02:40:42--Язык: Тамили
Перевод: Субтитры
Cубтитры: Русские
Перевод и редакция: Elain--Режиссер: Хари / Hari-В ролях: Викрам, Триша Кришнан, Шриниваса Рао Кота
В остальных ролях:
Vivek, Vijayakumar, Ramesh Kanna, Delhi Ganesh, Ponnambalam, Manorama, Thyagu, Sumithra--Описание: В город Тирунелвели приезжает новый заместитель камиссара полиции - Арусаами (Викрам). Он сразу же берется за дело и устанавливает жесткие порядки, направленные на поддержание спокойствия. Во время поисков подходящего жилья, он встречает девушку-браминку Бхувану (Триша). Они влюбляются друг в друга и дело идет к свадьбе. Но неожиданно выясняется, что Арусаами берет взятки от короля преступного мира Анначи (Кота Шриниваса Рао). Как сложатся отношения влюбленных, ведь отец Бхуваны (Delhi Ganesh) человек принципа и не отдаст свою дочь взяточнику...? (с) Elain-Доп. информация:
Этот фильм имел грандиозный успех в Тамил Наду и стал главным хитом 2003 г.
Награды и номинации:
Harris Jayaraj - номинация "лучший композитор";
Hari - номинация "лучший режиссер";
Pushpa Kandasamy (продюссер) - номинация "лучший фильм";
Викрам - победил в номинации "лучший актер";
Триша - победила в номинации "лучшая актриса".-- | Кинопоиск--Качество видео: DVDRip
Формат видео: AVI-Видео: XviD, 672x272, 23.976 fps, 1536 Kbps
Аудио: АС3, 48 КHz, 6 сh, 384 Kbps
Формат субтитров: hardsub (неотключаемые)--Релиз:
Перевод, редакция: Elain (спасибо!)
Риппер: soso4eg-- -
-

Скриншот с названием:


-

Скриншоты:


-

MI

Общее
Полное имя : C:\INDIYA\[Релизы]\Saamy.2003.DVDRip.XviD-soso4eg.avi
Формат : AVI
Формат/Информация : Audio Video Interleave
Профиль формата : OpenDML
Размер файла : 2,17 Гбайт
Продолжительность : 2 ч. 40 м.
Общий поток : 1932 Кбит/сек
Название фильма : Saamy.2003.DVDRip.XviD-soso4eg
Режиссёр : soso4eg
Программа кодирования : VirtualDubMod 1.5.10.3 | www.virtualdub-fr.org || (build 2550/release)
Правообладатель : BwTorrents.Ru
Видео
Идентификатор : 0
Формат : MPEG-4 Visual
Профиль формата : Advanced Simple@L5
Параметр BVOP формата : 2
Параметр QPel формата : Нет
Параметр GMC формата : Без точки перехода
Параметр матрицы формата : Default (MPEG)
Идентификатор кодека : XVID
Идентификатор кодека/Подсказка : XviD
Продолжительность : 2 ч. 40 м.
Битрейт : 1536 Кбит/сек
Ширина : 672 пикселя
Высота : 272 пикселя
Соотношение сторон : 2,471
Частота кадров : 23,976 кадра/сек
Цветовое пространство : YUV
Субдискретизация насыщенности : 4:2:0
Битовая глубина : 8 бит
Тип развёртки : Прогрессивная
Метод сжатия : С потерями
Бит/(Пиксели*Кадры) : 0.351
Размер потока : 1,72 Гбайт (80%)
Библиотека кодирования : XviD 1.2.1 (UTC 2008-12-04)
Аудио
Идентификатор : 1
Формат : AC-3
Формат/Информация : Audio Coding 3
Расширение режима : CM (complete main)
Параметр Endianness формата : Big
Идентификатор кодека : 2000
Продолжительность : 2 ч. 40 м.
Вид битрейта : Постоянный
Битрейт : 384 Кбит/сек
Каналы : 6 каналов
Расположение каналов : Front: L C R, Side: L R, LFE
Частота : 48,0 КГц
Битовая глубина : 16 бит
Метод сжатия : С потерями
Размер потока : 441 Мбайт (20%)
Выравнивание : Разделение по промежуткам
Продолжительность промежутка : 42 мс. (1,00 видеокадр)
Время предзагрузки промежутка : 500 мс.

-
-
Скачать

Скачать торрент! Саами / Saamy (Хари / Hari) [2003, Индия, Боевик, DVDRip] Rus Sub

Как скачивать? · Что такое торрент? · Рейтинг и ограничения

Сайт не распространяет и не хранит электронные версии произведений, а лишь предоставляет доступ к создаваемому пользователями каталогу ссылок на торрент-файлы, которые содержат только списки хеш-сумм

[Профиль] [ЛС]
Показать сообщения:    
Ответить на тему

Текущее время: Сегодня 01:00

Часовой пояс: GMT + 4



Вы не можете начинать темы
Вы не можете отвечать на сообщения
Вы не можете редактировать свои сообщения
Вы не можете удалять свои сообщения
Вы не можете голосовать в опросах
Вы не можете прикреплять файлы к сообщениям
Вы не можете скачивать файлы