Сильная женщина / Riding in Cars with Boys (Пенни Маршалл / Penny Marshall) [2001, США, драма, комедия, биография, WEB-DL 720p] DVO + Sub Rus + Original Eng

Ответить на тему
 
Автор Сообщение

user ®

Стаж: 7 лет 7 месяцев

Сообщений: 20008

Пост Пост: #1 от 20-Сен-2013 01:30

[Цитировать]

Сильная женщина / Riding in Cars with Boys Страна: США
Студия: Columbia Pictures, Gracie Films, Parkway Productions
Жанр: драма, комедия, биография
Год выпуска: 2001
Продолжительность: 02:11:16
Перевод: Профессиональный (двухголосый закадровый) [[url=http://***/forum/viewtopic.php?t=1787396]DVD9 R5[/url] - ВидеоСервис, 2002]
Cубтитры: русские, английские
Оригинальная аудиодорожка: английский
Режиссер: Пенни Маршалл / Penny Marshall
В ролях: Дрю Бэрримор, Стив Зан, Адам Гарсия, Бриттани Мерфи, Джеймс Вудс, Лоррейн Бракко, Рози Перес, Сара Гилберт, Питер Фачинелли, Мика Бурем, Селин Маргет, Винсент Пасторе, Марианн Урбано, Алисса Дин, Кристин Проктор, Лорен Лэйк, Десмонд Хэррингтон, Джордан Гелбер, Гэбриел Карпентер, Кевин Томс, Винсент Де Пол, Дэвид Москоу, Пас де ла Уэрта, Логан Аренс, Мэгги Джилленхол, Логан Лерман
Описание: Беверли Донофрио была умной и амбициозной девушкой, жаждавшей сделать карьеру писательницы. Но путь к мечте оказался не близок. Увы, в нежном возрасте голоса бурлящих в крови гормонов заглушают голос разума: в пятнадцать лет она забеременела от милого, но совершенно неприспособленного к жизни друга Рэя.
Школьница с ребенком в шестнадцать, позже — жена наркомана и мать-одиночка, Беверли получила от судьбы, кажется, все мыслимые тычки и затрещины, расплачиваясь за ошибки молодости. Однако никакие горести не могли заставить ее опустить руки и потерять свое чувство юмора.
Энергичная, веселая и талантливая, несмотря на все трудности героиня добилась своего: вырастила сына и написала книгу, ту, по которой поставлен этот удивительный фильм
Доп. информация:

Тип релиза: WEB-DL 720p
Контейнер: MKV
Видео: MPEG-4 AVC Video, 1280x718 / 1,78:1 (16:9) / 3980 kbps / 23,976 fps / Main@L3.1
Аудио 1: Russian: AC3, 6 ch, 448 kbps, 48 kHz
Аудио 2: English: AC3, 6 ch, 384 kbps, 48 kHz
Формат субтитров: softsub (SRT)
Главы: подписаны

MediaInfo

Общее
Уникальный идентификатор : 251785113211076637626961755119414928216 (0xBD6C0C854307CB44BB95AB59084BE358)
Полное имя : Сильная женщина 2001.WEB-DL.720p.ПД.Eng.mkv
Формат : Matroska
Версия формата : Version 4 / Version 2
Размер файла : 4,50 Гбайт
Продолжительность : 2 ч. 11 м.
Общий поток : 4910 Кбит/сек
Название фильма : Riding In Cars with Boys (2001)
Дата кодирования : UTC 2013-09-19 14:23:18
Программа кодирования : mkvmerge v6.4.1 ('Omega Point') built on Sep 16 2013 22:05:10
Библиотека кодирования : libebml v1.3.0 + libmatroska v1.4.1
Видео
Идентификатор : 1
Формат : AVC
Формат/Информация : Advanced Video Codec
Профиль формата : High@L3.1
Параметр CABAC формата : Нет
Параметр ReFrames формата : 2 кадра
Идентификатор кодека : V_MPEG4/ISO/AVC
Продолжительность : 2 ч. 11 м.
Битрейт : 3980 Кбит/сек
Ширина : 1280 пикселей
Высота : 718 пикселей
Соотношение сторон : 16:9
Режим частоты кадров : Постоянный
Частота кадров : 23,976 кадра/сек
Цветовое пространство : YUV
Субдискретизация насыщенности : 4:2:0
Битовая глубина : 8 бит
Тип развёртки : Прогрессивная
Бит/(Пиксели*Кадры) : 0.181
Размер потока : 3,65 Гбайт (81%)
Язык : English
Default : Да
Forced : Нет
Основные цвета : BT.709
Характеристики трансфера : BT.709
Коэффициенты матрицы : BT.709
Аудио #1
Идентификатор : 2
Формат : AC-3
Формат/Информация : Audio Coding 3
Расширение режима : CM (complete main)
Параметр Endianness формата : Big
Идентификатор кодека : A_AC3
Продолжительность : 2 ч. 11 м.
Вид битрейта : Постоянный
Битрейт : 448 Кбит/сек
Каналы : 6 каналов
Расположение каналов : Front: L C R, Side: L R, LFE
Частота : 48,0 КГц
Битовая глубина : 16 бит
Метод сжатия : С потерями
Размер потока : 421 Мбайт (9%)
Заголовок : AC3 6ch 384kbps - двухголосый (DVD9 R5 - ВидеоСервис, 2002)
Язык : Russian
Default : Да
Forced : Нет
Аудио #2
Идентификатор : 3
Формат : AC-3
Формат/Информация : Audio Coding 3
Расширение режима : CM (complete main)
Параметр Endianness формата : Big
Идентификатор кодека : A_AC3
Продолжительность : 2 ч. 11 м.
Вид битрейта : Постоянный
Битрейт : 384 Кбит/сек
Каналы : 6 каналов
Расположение каналов : Front: L C R, Side: L R, LFE
Частота : 48,0 КГц
Битовая глубина : 16 бит
Метод сжатия : С потерями
Размер потока : 361 Мбайт (8%)
Заголовок : AC3 6ch 384kbps - original
Язык : English
Default : Нет
Forced : Нет
Текст #1
Идентификатор : 4
Формат : UTF-8
Идентификатор кодека : S_TEXT/UTF8
Идентификатор кодека/Информация : UTF-8 Plain Text
Язык : Russian
Default : Нет
Forced : Нет
Текст #2
Идентификатор : 5
Формат : UTF-8
Идентификатор кодека : S_TEXT/UTF8
Идентификатор кодека/Информация : UTF-8 Plain Text
Язык : English
Default : Нет
Forced : Нет
Меню
00:00:00.000 : en:Start
00:02:51.000 : en:A woman at 11
00:12:06.000 : en:The party
00:15:54.000 : en:Ray meets Bev
00:19:52.000 : en:In cars with boys
00:27:03.000 : en:"Please marry me."
00:29:25.000 : en:Taking Fay's advice
00:32:13.000 : en:Plans go awry
00:34:25.000 : en:The wedding reception
00:42:35.000 : en:"This is our place!"
00:45:50.000 : en:Two weeks late
00:48:47.000 : en:"It's a boy."
00:54:41.000 : en:D-I-V-O-R-C-E
00:57:52.000 : en:Scholarship interview
00:59:44.000 : en:"Where were you?"
01:05:20.000 : en:Backyard high
01:10:38.000 : en:Jason's birthday party
01:15:39.000 : en:California offer
01:20:35.000 : en:"I'm a junkie."
01:23:02.000 : en:Cold turkey
01:28:21.000 : en:Goodnight and goodbye
01:37:51.000 : en:Drying weed
01:40:03.000 : en:Fay's deal with Dennis
01:44:56.000 : en:Shirley and Ray
01:52:07.000 : en:Best thing he ever did
01:54:55.000 : en:Incredibly screwed up
01:57:56.000 : en:"You saved me."
02:01:47.000 : en:"All I have to do is dream"

-

Скриншот с названием фильма

Скачать

Скачать торрент!

Как скачивать? · Что такое торрент? · Рейтинг и ограничения

Сайт не распространяет и не хранит электронные версии произведений, а лишь предоставляет доступ к создаваемому пользователями каталогу ссылок на торрент-файлы, которые содержат только списки хеш-сумм

[Профиль] [ЛС]
Показать сообщения:    
Ответить на тему

Текущее время: Сегодня 06:02

Часовой пояс: GMT + 4



Вы не можете начинать темы
Вы не можете отвечать на сообщения
Вы не можете редактировать свои сообщения
Вы не можете удалять свои сообщения
Вы не можете голосовать в опросах
Вы не можете прикреплять файлы к сообщениям
Вы не можете скачивать файлы