Последняя сказка Риты (Рената Литвинова) [2012, Россия, фэнтези, драма, детектив, WEB-DLRip-AVC]

Ответить на тему
 
Автор Сообщение

user ®

Стаж: 7 лет 7 месяцев

Сообщений: 20008

Пост Пост: #1 от 19-Сен-2013 19:10

[Цитировать]

Последняя сказка Риты Страна: Россия
Жанр: фэнтези, драма, детектив
Год выпуска: 2012
Продолжительность: 01:41:06
Режиссер: Рената Литвинова
В ролях: Митя Борисов, Лев Данилкин, Сергей Дебижев, Татьяна Друбич, Альбина Евтушевская, Алиса Хазанова, Николай Хомерики, Ольга Кузина, Рената Литвинова, Ольга Попова
Описание: Три женщины, три состояния души, три вечные темы: любовь, смерть и поиски счастья. И один ангел смерти, сопровождающий в иной мир души тех, кто способен любить. История, разворачивающаяся на грани реальности и запределья.
|
Релиз:
Автор рипа: S.T.A.L.K.E.R.2 (aka Stalker oK)
Сэмпл: http://multi-up.com/904767
Качество: WEB-DLRip-AVC [WEB-DL 720р]
Формат: MKV
Видео кодек: AVC
Аудио кодек: AC3
Видео: 1672 Кбит/сек, 960*540 (16:9), в 24,000 кадр/сек, AVC
Аудио: Russian, 384 Кбит/сек, 48,0 КГц, 16 бит, 6 канала(ов), AC-3

MediaInfo

Общее
Уникальный идентификатор : 239515409666410227506044625808552176064 (0xB430FD6E242693F38FA253D2A81929C0)
Полное имя : H:\последняя сказка Риты\Poslednjaja_skazka_Rity_2012_WEB_DLRip_AVC__stalkerok.mkv
Формат : Matroska
Размер файла : 1,45 Гбайт
Продолжительность : 1 ч. 41 м.
Общий поток : 2056 Кбит/сек
Название фильма : Последняя сказка Риты 2012 (Youtracker) (Rip by Stalker oK)
Дата кодирования : UTC 2013-09-19 09:26:43
Программа кодирования : mkvmerge v6.2.0 ('Promised Land') built on Apr 28 2013 12:22:01
Библиотека кодирования : libebml v1.3.0 + libmatroska v1.4.0
Видео
Идентификатор : 1
Формат : AVC
Формат/Информация : Advanced Video Codec
Профиль формата : High@L4.1
Параметр CABAC формата : Да
Параметр ReFrames формата : 10 кадры
Идентификатор кодека : V_MPEG4/ISO/AVC
Продолжительность : 1 ч. 41 м.
Битрейт : 1672 Кбит/сек
Ширина : 960 пикс.
Высота : 540 пикс.
Соотношение сторон : 16:9
Частота кадров : 24,000 кадр/сек
Цветовое пространство : YUV
Подвыборка цветности : 4:2:0
Битовая глубина : 8 бит
Тип развёртки : Прогрессивная
Бит/(Пиксели*Кадры) : 0.134
Размер потока : 1,15 Гбайт (79%)
Библиотека кодирования : x264 core 130 r2273 b3065e6
Настройки программы : cabac=1 / ref=10 / deblock=1:-2:-2 / analyse=0x3:0x133 / me=umh / subme=11 / psy=1 / psy_rd=1.00:0.10 / mixed_ref=1 / me_range=32 / chroma_me=1 / trellis=2 / 8x8dct=1 / cqm=0 / deadzone=21,11 / fast_pskip=0 / chroma_qp_offset=-3 / threads=4 / lookahead_threads=1 / sliced_threads=0 / nr=0 / decimate=0 / interlaced=0 / bluray_compat=0 / constrained_intra=0 / bframes=12 / b_pyramid=2 / b_adapt=2 / b_bias=0 / direct=3 / weightb=1 / open_gop=0 / weightp=2 / keyint=240 / keyint_min=24 / scenecut=40 / intra_refresh=0 / rc_lookahead=60 / rc=2pass / mbtree=1 / bitrate=1672 / ratetol=2.0 / qcomp=0.70 / qpmin=0 / qpmax=69 / qpstep=4 / cplxblur=20.0 / qblur=0.5 / vbv_maxrate=35000 / vbv_bufsize=40000 / nal_hrd=none / ip_ratio=1.25 / aq=2:0.80
Аудио
Идентификатор : 2
Формат : AC-3
Формат/Информация : Audio Coding 3
Расширение режима : CM (complete main)
Идентификатор кодека : A_AC3
Продолжительность : 1 ч. 41 м.
Вид битрейта : Постоянный
Битрейт : 384 Кбит/сек
Канал(ы) : 6 канала(ов)
Расположение каналов : Front: L C R, Side: L R, LFE
Частота : 48,0 КГц
Битовая глубина : 16 бит
Метод сжатия : С потерями
Размер потока : 278 Мбайт (19%)
Заголовок : AC3 5.1 @ 384 kbps
Язык : Russian
Меню
00:00:00.000 : en:Глава 1
00:07:42.000 : en:Глава 2
00:12:30.000 : en:Глава 3
00:17:28.000 : en:Глава 4
00:22:17.000 : en:Глава 5
00:27:20.000 : en:Глава 6
00:32:24.000 : en:Глава 7
00:37:29.000 : en:Глава 8
00:42:33.000 : en:Глава 9
00:47:40.000 : en:Глава 10
00:52:32.000 : en:Глава 11
00:57:29.000 : en:Глава 12
01:02:09.000 : en:Глава 13
01:07:21.000 : en:Глава 14
01:12:22.000 : en:Глава 15
01:17:35.000 : en:Глава 16
01:22:34.000 : en:Глава 17
01:27:35.000 : en:Глава 18
01:32:32.000 : en:Глава 19
01:37:40.000 : en:Глава 20

Скриншоты

Скачать

Скачать торрент!

Как скачивать? · Что такое торрент? · Рейтинг и ограничения

Сайт не распространяет и не хранит электронные версии произведений, а лишь предоставляет доступ к создаваемому пользователями каталогу ссылок на торрент-файлы, которые содержат только списки хеш-сумм

[Профиль] [ЛС]
Показать сообщения:    
Ответить на тему

Текущее время: Сегодня 09:50

Часовой пояс: GMT + 4



Вы не можете начинать темы
Вы не можете отвечать на сообщения
Вы не можете редактировать свои сообщения
Вы не можете удалять свои сообщения
Вы не можете голосовать в опросах
Вы не можете прикреплять файлы к сообщениям
Вы не можете скачивать файлы