Свидетели должны замолчать / Breakout (Дэмиан Ли / Damian Lee) [2013, Канада, боевик, триллер, WEB-DLRip] DVO

Ответить на тему
 
Автор Сообщение

user ®

Стаж: 7 лет 7 месяцев

Сообщений: 20008

Пост Пост: #1 от 19-Сен-2013 19:10

[Цитировать]

Свидетели должны замолчать / Breakout
Страна: Канада
Жанр: боевик, триллер
Год выпуска: 2013
Продолжительность: 01:29:04
Перевод: Профессиональный (двухголосый закадровый)
Cубтитры: нет
Оригинальная аудиодорожка: нет
Режиссер: Дэмиан Ли / Damian Lee
В ролях: Брендан Фрейзер, Доминик Пёрселл, Итан Сапли, Дэниэл Кэш, Эми Прайс-Фрэнсис, Холли Дево, Лара Даанс, Эндрю Джексон, Лэйтон Моррисон, Аркадия Ли, Энтони Юлк, Наоми Эндрюс, Кристиан Мартин
Описание: Невинная поездка на природу превращается для брата и сестры в опасное приключение, когда они становятся свидетелями убийства. Стремясь избавиться от ненужных глаз, преступники начинают безжалостную охоту на детей. Отец ребят Джек Дэмсон, отбывающий срок в тюрьме за акцию протеста, которая привела к трагическим последствиям, разрабатывает план побега, чтобы вырвать своих детей из цепких лап профессиональных преступников Томми и Кенни...


Сэмпл: http://multi-up.com/904705
Качество видео: WEB-DLRip (Исх. WEB-DL 1080p)
Формат видео: AVI
Видео: 656x368 (1.78:1), 23.976 fps, XviD build 50 ~1032 kbps avg, 0.18 bit/pixel
Аудио: 48 kHz, MPEG Layer 3, 2 ch, ~128.00 kbps avg

MediaInfo

Общее
Полное имя : S:\Фильмы\Свидетели должны замолчать. 2013. WEB-DLRip (AleksSin).avi
Формат : AVI
Формат/Информация : Audio Video Interleave
Размер файла : 745 Мбайт
Продолжительность : 1 ч. 29 м.
Общий поток : 1169 Кбит/сек
Программа кодирования : VirtualDubMod 1.5.10.3 | www.virtualdub-fr.org || (build 2550/release)
Библиотека кодирования : VirtualDubMod build 2550/release
Видео
Идентификатор : 0
Формат : MPEG-4 Visual
Профиль формата : Advanced Simple@L5
Параметр BVOP формата : 2
Параметр QPel формата : Нет
Параметр GMC формата : Без точки перехода
Параметр матрицы формата : Default (H.263)
Идентификатор кодека : XVID
Идентификатор кодека/Подсказка : XviD
Продолжительность : 1 ч. 29 м.
Битрейт : 1032 Кбит/сек
Ширина : 656 пикс.
Высота : 368 пикс.
Соотношение сторон : 16:9
Частота кадров : 23,976 кадр/сек
Цветовое пространство : YUV
Подвыборка цветности : 4:2:0
Битовая глубина : 8 бит
Тип развёртки : Прогрессивная
Метод сжатия : С потерями
Бит/(Пиксели*Кадры) : 0.178
Размер потока : 657 Мбайт (88%)
Библиотека кодирования : XviD 1.2.1 (UTC 2008-12-04)
Аудио
Идентификатор : 1
Формат : MPEG Audio
Версия формата : Version 1
Профиль формата : Layer 3
Идентификатор кодека : 55
Идентификатор кодека/Подсказка : MP3
Продолжительность : 1 ч. 29 м.
Вид битрейта : Постоянный
Битрейт : 128 Кбит/сек
Каналы : 2 канала
Частота : 48,0 КГц
Метод сжатия : С потерями
Размер потока : 81,5 Мбайт (11%)
Выравнивание : Соединение по промежуткам
Продолжительность промежутка : 42 мс. (1,00 видеокадр)
Время предзагрузки промежутка : 504 ms
Библиотека кодирования : LAME3.99r
Настройки программы : -m s -V 4 -q 2 -lowpass 17 -b 128

Скриншот c названием фильма

Скриншоты

Скачать

Скачать торрент!

Как скачивать? · Что такое торрент? · Рейтинг и ограничения

Сайт не распространяет и не хранит электронные версии произведений, а лишь предоставляет доступ к создаваемому пользователями каталогу ссылок на торрент-файлы, которые содержат только списки хеш-сумм

[Профиль] [ЛС]
Показать сообщения:    
Ответить на тему

Текущее время: Сегодня 07:56

Часовой пояс: GMT + 4



Вы не можете начинать темы
Вы не можете отвечать на сообщения
Вы не можете редактировать свои сообщения
Вы не можете удалять свои сообщения
Вы не можете голосовать в опросах
Вы не можете прикреплять файлы к сообщениям
Вы не можете скачивать файлы