Тяжелый металл 2000 / Heavy Metal 2000 (Майкл Колдвей / Michael Coldewey, Мишель Лемир / Michel Lemire) [2000, фантастика, боевик, DVDRip-AVC] MVO + Original Eng + Rus, Eng Sub

Ответить на тему
 
Автор Сообщение

user ®

Стаж: 13 лет

Сообщений: 15041

Пост Пост: #1 от 19-Сен-2013 00:55

[Цитировать]

Тяжелый металл 2000 / Heavy Metal 2000
Страна: Канада, Германия
Жанр: фантастика, боевик
Продолжительность: 1:27:49
Год выпуска: 2000
Перевод: Профессиональный (многоголосый закадровый)
Русские субтитры: есть
Режиссёр: Майкл Колдвей / Michael Coldewey, Мишель Лемир / Michel Lemire
Роли озвучивали: Джули Стрейн, Майкл Айронсайд, Билли Айдл, Соня Болл, Брэйди Моффатт, Джейн Вудс...
Описание: В далеком прошлом галактиками правили аракианцы, питавшие свою силу из великого источника бессмертия. Спустя века после их гибели ключ к нему нашел коварный злодей Тайлер, вознамерившийся подчинить себе вселенную.
Но на его пути к магическому источнику, спрятанному в каменных палатах на далекой планете Юроборис, встала могучая воительница ФАКК-2, которая будет преследовать Тайлера в ледяных глубинах бескрайнего космоса, обыскивая неведомые миры, населенные жестокими разбойниками, таинственными магами и невероятными созданиями, до тех пор, пока безжалостный тиран своей кровью не заплатит за гибель ее родной планеты.
Качество: DVDRip-AVC
Формат: MKV
Видео: 716x464 (1.85:1) @ 850x464, 23.976 fps, AVC, ~1480 Kbps, 0.186 bits/pixel
Аудио 1: Russian, 48.0 KHz, AC3, 6 ch, 448 Kbps
Аудио 2: English, 48.0 KHz, AC3, 6 ch, 448 Kbps
Субтитры: русские, английские

Log

x264.exe: --pass 2 --bitrate 1480 --preset medium --ref 9 --deblock -1:-1 --merange 48 --bframes 10 --direct auto --b-adapt 2 --trellis 2 --no-fast-pskip --psy-rd 1.00:0.10 --partitions all --subme 11 --me umh --rc-lookahead 50 --stats "D:\heavy.metal.2000.dvd5.MeG_T02.log" --sar 222:187 --output "D:\heavy.metal.2000.dvd5.MeG_T02.mp4" "D:\Temp\0174.avs"
avs [info]: 716x464p 222:187 @ 24000/1001 fps (cfr)
x264 [info]: using SAR=222/187
x264 [info]: using cpu capabilities: MMX2 SSE2Fast SSEMisalign LZCNT
x264 [info]: profile High, level 3.1
x264 [info]: frame I:1066 Avg QP:14.89 size: 62579
x264 [info]: frame P:30230 Avg QP:18.11 size: 16965
x264 [info]: frame B:95161 Avg QP:21.49 size: 4162
x264 [info]: consecutive B-frames: 2.2% 3.6% 11.1% 33.3% 17.8% 26.7% 2.4% 0.8% 0.5% 0.6% 0.9%
x264 [info]: mb I I16..4: 10.1% 59.3% 30.6%
x264 [info]: mb P I16..4: 0.7% 6.8% 1.6% P16..4: 29.9% 34.6% 13.5% 2.9% 0.4% skip: 9.5%
x264 [info]: mb B I16..4: 0.1% 1.1% 0.1% B16..8: 31.4% 13.2% 2.1% direct: 4.5% skip:47.6% L0:41.0% L1:49.4% BI: 9.6%
x264 [info]: 8x8 transform intra:74.1% inter:49.5%
x264 [info]: direct mvs spatial:96.5% temporal:3.5%
x264 [info]: coded y,uvDC,uvAC intra: 89.2% 85.3% 67.9% inter: 18.8% 16.9% 5.2%
x264 [info]: i16 v,h,dc,p: 30% 15% 15% 40%
x264 [info]: i8 v,h,dc,ddl,ddr,vr,hd,vl,hu: 8% 8% 9% 10% 13% 12% 12% 12% 13%
x264 [info]: i4 v,h,dc,ddl,ddr,vr,hd,vl,hu: 11% 8% 6% 10% 14% 14% 12% 12% 13%
x264 [info]: i8c dc,h,v,p: 39% 26% 19% 17%
x264 [info]: Weighted P-Frames: Y:7.4% UV:3.0%
x264 [info]: ref P L0: 44.8% 8.2% 19.2% 6.6% 6.1% 4.5% 4.5% 2.5% 2.8% 0.7% 0.0%
x264 [info]: ref B L0: 71.4% 13.2% 5.8% 3.1% 2.3% 2.2% 1.3% 0.6%
x264 [info]: ref B L1: 93.3% 6.7%
x264 [info]: kb/s:1479.86

Подробные технические данные

GeneralUnique ID : 203861016540435277529811547015314253984 (0x995E3420C20028DABE9FAB44AA19A8A0)Complete name : D:\Heavy Metal 2000.mkvFormat : MatroskaFormat version : Version 4 / Version 2File size : 1.46 GiBDuration : 1h 27mnOverall bit rate : 2 378 KbpsEncoded date : UTC 2013-09-18 16:00:54Writing application : mkvmerge v6.4.1 ('Omega Point') built on Sep 16 2013 22:05:10Writing library : libebml v1.3.0 + libmatroska v1.4.1
VideoID : 1Format : AVCFormat/Info : Advanced Video CodecFormat profile : High@L3.1Format settings, CABAC : YesFormat settings, ReFrames : 9 framesCodec ID : V_MPEG4/ISO/AVCDuration : 1h 27mnBit rate : 1 480 KbpsWidth : 716 pixelsHeight : 464 pixelsDisplay aspect ratio : 1.85:1Frame rate mode : ConstantFrame rate : 23.976 fpsColor space : YUVChroma subsampling : 4:2:0Bit depth : 8 bitsScan type : ProgressiveBits/(Pixel*Frame) : 0.186Stream size : 902 MiB (60%)Writing library : x264 core 133 r2334 a3ac64bEncoding settings : cabac=1 / ref=9 / deblock=1:-1:-1 / analyse=0x3:0x133 / me=umh / subme=11 / psy=1 / psy_rd=1.00:0.10 / mixed_ref=1 / me_range=48 / chroma_me=1 / trellis=2 / 8x8dct=1 / cqm=0 / deadzone=21,11 / fast_pskip=0 / chroma_qp_offset=-3 / threads=6 / lookahead_threads=1 / sliced_threads=0 / nr=0 / decimate=1 / interlaced=0 / bluray_compat=0 / constrained_intra=0 / bframes=10 / b_pyramid=2 / b_adapt=2 / b_bias=0 / direct=3 / weightb=1 / open_gop=0 / weightp=2 / keyint=250 / keyint_min=23 / scenecut=40 / intra_refresh=0 / rc_lookahead=50 / rc=2pass / mbtree=1 / bitrate=1480 / ratetol=1.0 / qcomp=0.60 / qpmin=0 / qpmax=69 / qpstep=4 / cplxblur=20.0 / qblur=0.5 / ip_ratio=1.40 / aq=1:1.00Default : YesForced : No
Audio #1ID : 2Format : AC-3Format/Info : Audio Coding 3Mode extension : CM (complete main)Format settings, Endianness : BigCodec ID : A_AC3Duration : 1h 27mnBit rate mode : ConstantBit rate : 448 KbpsChannel count : 6 channelsChannel positions : Front: L C R, Side: L R, LFESampling rate : 48.0 KHzBit depth : 16 bitsCompression mode : LossyStream size : 282 MiB (19%)Language : RussianDefault : YesForced : No
Audio #2ID : 3Format : AC-3Format/Info : Audio Coding 3Mode extension : CM (complete main)Format settings, Endianness : BigCodec ID : A_AC3Duration : 1h 27mnBit rate mode : ConstantBit rate : 448 KbpsChannel count : 6 channelsChannel positions : Front: L C R, Side: L R, LFESampling rate : 48.0 KHzBit depth : 16 bitsCompression mode : LossyStream size : 282 MiB (19%)Language : EnglishDefault : NoForced : No
Text #1ID : 4Format : UTF-8Codec ID : S_TEXT/UTF8Codec ID/Info : UTF-8 Plain TextLanguage : RussianDefault : NoForced : No
Text #2ID : 5Format : UTF-8Codec ID : S_TEXT/UTF8Codec ID/Info : UTF-8 Plain TextLanguage : EnglishDefault : NoForced : No
Menu00:03:39.801 : :Chapter 0100:06:39.235 : :Chapter 0200:10:03.969 : :Chapter 0300:14:08.303 : :Chapter 0400:19:36.970 : :Chapter 0500:23:06.437 : :Chapter 0600:28:00.570 : :Chapter 0700:30:23.204 : :Chapter 0800:35:02.938 : :Chapter 0900:41:03.438 : :Chapter 1000:44:24.438 : :Chapter 1100:49:24.339 : :Chapter 1200:52:22.339 : :Chapter 1300:54:54.639 : :Chapter 1400:58:23.340 : :Chapter 1501:03:14.640 : :Chapter 1601:05:28.107 : :Chapter 1701:08:54.008 : :Chapter 1801:10:58.008 : :Chapter 1901:13:42.475 : :Chapter 2001:17:03.775 : :Chapter 2101:19:44.009 : :Chapter 2201:21:46.509 : :Chapter 23

Скриншоты

Скачать

Скачать торрент! Тяжелый металл 2000 / Heavy Metal 2000 (Майкл Колдвей / Michael Coldewey, Мишель Лемир / Michel Lemire) [2000, фантастика, боевик, DVDRip-AVC] MVO + Original Eng + Rus, Eng Sub

Как скачивать? · Что такое торрент? · Рейтинг и ограничения

Сайт не распространяет и не хранит электронные версии произведений, а лишь предоставляет доступ к создаваемому пользователями каталогу ссылок на торрент-файлы, которые содержат только списки хеш-сумм

[Профиль] [ЛС]
Показать сообщения:    
Ответить на тему

Текущее время: Сегодня 00:30

Часовой пояс: GMT + 4



Вы не можете начинать темы
Вы не можете отвечать на сообщения
Вы не можете редактировать свои сообщения
Вы не можете удалять свои сообщения
Вы не можете голосовать в опросах
Вы не можете прикреплять файлы к сообщениям
Вы не можете скачивать файлы