Мы - единая душа / Ek Jaan Hain Hum (Раджив Мехра / Rajiv Mehra) [1983, Индия, Мелодрама, DVDRip] VO (Nastia)

Ответить на тему
 
Автор Сообщение

user ®

Стаж: 12 лет

Сообщений: 15125

Пост Пост: #1 от 19-Сен-2013 00:55

[Цитировать]

Мы - единая душа / Ek Jaan Hain Hum
Страна: Индия
Жанр: Мелодрама
Год выпуска: 1983
Продолжительность: 02:25:35
Перевод: Одноголосый закадровый Nastia
Cубтитры: нет
Режиссер: Раджив Мехра / Rajiv Mehra
В ролях: Раджив Капур, Шамми Капур, Пран, Тануджа, Дивья Рана, Ракеш Беди, Автар Гилл, Гульшан Гровер, Монти Шарма
Описание: Студенты Викрам Саксена и Сима Сингх влюбились друг в друга. Но у родителей девушки другие планы. Ее отец полковник Рам Мохан Сингх ненавидит отца Викрама, который однажды выступил в судебном процессе против сестры Симы. Недоразумение на вечеринке привело к тому, что Викрама обвинили в поджоге дома Сингхов. Чтобы спасти сына от тюрьмы адвокат Шьям Сундер Саксена объявляет Вики умалишенным…
Доп. информация: Релиз
Перевод: larisa_k (Спасибо!)
Озвучка: Nastia (Спасибо!)
Релиз и сведение аудио: керелис (Спасибо!)
От автора релиза: Английские субтитры были неполные, поэтому некоторые фрагменты на протяжении всего фильма идут без озвучки. Конец фильма (11 секунд) вставлен с другого релиза.
Сэмпл: http://multi-up.com/904501
Качество видео: DVDRip
Формат видео: AVI
Видео: DivX Codec 5.x or 6.x, 640x480 (1.33:1), 23.976 fps, 1490 kbps avg
Аудио: AC3 Dolby Digital, 48 kHz, 2/0 (L,R) ch, 192.00 kbps avg

MediaInfo

General
Complete name : D:\My.edinaja.dusha.1983.DVDRip.DivX.BWTorrents.avi
Format : AVI
Format/Info : Audio Video Interleave
File size : 1.72 GiB
Duration : 2h 25mn
Overall bit rate : 1 692 Kbps
Writing application : VirtualDubModRus 1.5.10.2 (build 2542/release)
Writing library : VirtualDubMod build 2542/release
Video
ID : 0
Format : MPEG-4 Visual
Format settings, BVOP : Yes
Format settings, QPel : No
Format settings, GMC : No warppoints
Format settings, Matrix : Default (H.263)
Muxing mode : Packed bitstream
Codec ID : DX50
Codec ID/Hint : DivX 5
Duration : 2h 25mn
Bit rate : 1 490 Kbps
Width : 640 pixels
Height : 480 pixels
Display aspect ratio : 4/3
Frame rate : 23.976 fps
Resolution : 24 bits
Colorimetry : 4:2:0
Scan type : Progressive
Bits/(Pixel*Frame) : 0.202
Stream size : 1.52 GiB (88%)
Writing library : DivX 6.8.5
Audio
ID : 1
Format : AC-3
Format/Info : Audio Coding 3
Codec ID : 2000
Duration : 2h 25mn
Bit rate mode : Constant
Bit rate : 192 Kbps
Channel(s) : 2 channels
Channel positions : L R
Sampling rate : 48.0 KHz
Stream size : 200 MiB (11%)
Alignment : Split accross interleaves
Interleave, duration : 42 ms (1.00 video frame)
Interleave, preload duration : 500 ms

Скриншоты

Скачать

Скачать торрент! Мы - единая душа / Ek Jaan Hain Hum (Раджив Мехра / Rajiv Mehra) [1983, Индия, Мелодрама, DVDRip] VO (Nastia)

Как скачивать? · Что такое торрент? · Рейтинг и ограничения

Сайт не распространяет и не хранит электронные версии произведений, а лишь предоставляет доступ к создаваемому пользователями каталогу ссылок на торрент-файлы, которые содержат только списки хеш-сумм

[Профиль] [ЛС]
Показать сообщения:    
Ответить на тему

Текущее время: Сегодня 00:33

Часовой пояс: GMT + 4



Вы не можете начинать темы
Вы не можете отвечать на сообщения
Вы не можете редактировать свои сообщения
Вы не можете удалять свои сообщения
Вы не можете голосовать в опросах
Вы не можете прикреплять файлы к сообщениям
Вы не можете скачивать файлы