Свой (Леонид Агранович) [1969, детектив, драма, SATRip]

Ответить на тему
 
Автор Сообщение

user ®

Стаж: 7 лет 7 месяцев

Сообщений: 20008

Пост Пост: #1 от 18-Сен-2013 21:45

[Цитировать]

Свой
Жанр: детектив, драма
Год выпуска: 1969
Продолжительность: 01:22:49
Режиссёр: Леонид Агранович
В ролях: Алла Покровская, Олег Ефремов, Галина Волчек, Ирина Дёмина, Евгения Уралова, Петр Константинов, Владимир Муравьёв, Алексей Ковалёв, Евгений Евстигнеев, Юрий Горобец, Светлана Коновалова, Николай Лиров
Описание: Нельзя работнику прокуратуры нарушать закон, даже из лучших побуждений. И вот следователю Сергеевой поручено дело ее коллеги Кошелева, обвиняемого во взяточничестве. Профессионализм поможет следователю разобраться в сложных обстоятельствах и установить истину.
Доп. информация: [url=http://***/forum/viewtopic.php?t=3926585]исходник[/url]
Сэмпл: http://sendfile.su/868892
Качество видео: SATRip
Формат видео: AVI
Видео: Xvid, 640x336, 25fps, 1019Kbps Bits/Pixel : 0.208
Аудио: MP3, 48 kHz, 2 channels, 128 kbps

MediaInfo

General
Complete name : Z:\Наше кино\Рипы_745\Свой 1969_Эталон67.avi
Format : AVI
Format/Info : Audio Video Interleave
File size : 744 MiB
Duration : 1h 22mn
Overall bit rate : 1 257 Kbps
Director : Эталон67 from *** 18-09-2013
Writing application : VirtualDubMod 1.5.10.2 (build 2540/release)
Writing library : VirtualDubMod build 2540/release
Video
ID : 0
Format : MPEG-4 Visual
Format profile : Advanced Simple@L5
Format settings, BVOP : 1
Format settings, QPel : No
Format settings, GMC : No warppoints
Format settings, Matrix : Default (H.263)
Codec ID : XVID
Codec ID/Hint : XviD
Duration : 1h 22mn
Bit rate : 1 119 Kbps
Width : 640 pixels
Height : 336 pixels
Display aspect ratio : 1.905
Frame rate : 25.000 fps
Color space : YUV
Chroma subsampling : 4:2:0
Bit depth : 8 bits
Scan type : Progressive
Compression mode : Lossy
Bits/(Pixel*Frame) : 0.208
Stream size : 663 MiB (89%)
Writing library : XviD 1.2.1 (UTC 2008-12-04)
Audio
ID : 1
Format : MPEG Audio
Format version : Version 1
Format profile : Layer 3
Codec ID : 55
Codec ID/Hint : MP3
Duration : 1h 22mn
Bit rate mode : Constant
Bit rate : 128 Kbps
Channel(s) : 2 channels
Sampling rate : 48.0 KHz
Compression mode : Lossy
Stream size : 75.8 MiB (10%)
Alignment : Aligned on interleaves
Interleave, duration : 40 ms (1.00 video frame)
Interleave, preload duration : 504 ms
Writing library : LAME3.99r
Encoding settings : -m s -V 4 -q 2 -lowpass 17 -b 128

Скриншот c названием фильма

Скриншоты

Скачать

Скачать торрент!

Как скачивать? · Что такое торрент? · Рейтинг и ограничения

Сайт не распространяет и не хранит электронные версии произведений, а лишь предоставляет доступ к создаваемому пользователями каталогу ссылок на торрент-файлы, которые содержат только списки хеш-сумм

[Профиль] [ЛС]
Показать сообщения:    
Ответить на тему

Текущее время: Сегодня 05:53

Часовой пояс: GMT + 4



Вы не можете начинать темы
Вы не можете отвечать на сообщения
Вы не можете редактировать свои сообщения
Вы не можете удалять свои сообщения
Вы не можете голосовать в опросах
Вы не можете прикреплять файлы к сообщениям
Вы не можете скачивать файлы