Крученый мяч / Trouble with the Curve (Роберт Лоренц / Robert Lorenz) [2012, США, драма, спорт, BDRemux 1080p] MVO + DVO + Original eng + Sub rus, eng

Ответить на тему
 
Автор Сообщение

user ®

Стаж: 7 лет 7 месяцев

Сообщений: 20008

Пост Пост: #1 от 18-Сен-2013 18:35

[Цитировать]

Крученый мяч / Trouble with the Curve
Страна: США
Жанр: драма, спорт
Год выпуска: 2012
Продолжительность: 01:51:12
Перевод#1: Профессиональный (многоголосый закадровый) | R5
Перевод#2: Профессиональный (двухголосый закадровый) | Омикрон
Cубтитры: русские, английские
Оригинальная аудиодорожка: английский
Режиссер: Роберт Лоренц / Robert Lorenz
В ролях: Клинт Иствуд, Джастин Тимберлэйк, Эми Адамс, Джон Гудмен, Боб Гантон, Мэттью Лиллард, Роберт Патрик, Челси Росс, Джордж Уайнер, Эд Лотер
Описание: История пожилого бейсбольного скаута. Герой постепенно теряет зрение и вместе с дочерью в последний раз отправляется на поиски будущих звезд бейсбола
Доп. информация: за двухголоску благодарим меценатов с , остальная начинка оттуда же, всем спасибо

Тип релиза: BDRemux 1080p | sample
Контейнер: MKV
Видео кодек: x264
Видео: MPEG-4 AVC 1920x1080 (16:9), 23.976 fps, ~24.8 Mbps
Аудио #1: Russian AC3 6ch 48kHz 640Kbps | MVO R5
Аудио #2: Russian DTS-HD MA / 5.1 / 48 kHz / ~3633 kbps / 24-bit (DTS Core: 5.1 / 48 kHz / 1510 kbps / 24-bit) | DVO Омикрон
Аудио #3: English DTS-HD MA 5.1 / 48 kHz / ~3577 kbps / 24-bit (DTS Core: 5.1 / 48 kHz / 1510 kbps / 24-bit) | Original
Формат субтитров: softsub (SRT)
Главы: есть

MediaInfo

General
Complete name : D:\...\Trouble.with.the.Curve.2012.1080p.BDRemux.AVC.2xRus.Eng.mkv
Format : Matroska
Format version : Version 4 / Version 2
File size : 25.4 GiB
Duration : 1h 51mn
Overall bit rate mode : Variable
Overall bit rate : 32.7 Mbps
Movie name : Trouble.with.the.Curve.2012.1080p.BDRemux.AVC.2xRus.Eng
Encoded date : UTC 2013-09-18 03:15:06
Writing application : mkvmerge v6.2.0 ('Promised Land') built on Apr 28 2013 12:22:01
Writing library : libebml v1.3.0 + libmatroska v1.4.0
Video
ID : 1
Format : AVC
Format/Info : Advanced Video Codec
Format profile : High@L4.1
Format settings, CABAC : Yes
Format settings, ReFrames : 2 frames
Format settings, GOP : M=1, N=10
Codec ID : V_MPEG4/ISO/AVC
Duration : 1h 51mn
Bit rate mode : Variable
Bit rate : 28.0 Mbps
Width : 1 920 pixels
Height : 1 080 pixels
Display aspect ratio : 16:9
Frame rate mode : Constant
Frame rate : 23.976 fps
Color space : YUV
Chroma subsampling : 4:2:0
Bit depth : 8 bits
Scan type : Progressive
Bits/(Pixel*Frame) : 0.564
Stream size : 21.8 GiB (86%)
Language : English
Default : No
Forced : No
Audio #1
ID : 2
Format : AC-3
Format/Info : Audio Coding 3
Mode extension : CM (complete main)
Format settings, Endianness : Big
Codec ID : A_AC3
Duration : 1h 51mn
Bit rate mode : Constant
Bit rate : 640 Kbps
Channel(s) : 6 channels
Channel positions : Front: L C R, Side: L R, LFE
Sampling rate : 48.0 KHz
Bit depth : 16 bits
Compression mode : Lossy
Stream size : 509 MiB (2%)
Title : MVO R5
Language : Russian
Default : Yes
Forced : No
Audio #2
ID : 3
Format : DTS
Format/Info : Digital Theater Systems
Format profile : MA / Core
Codec ID : A_DTS
Duration : 1h 51mn
Bit rate mode : Variable
Bit rate : 1 822 Kbps / 1 510 Kbps
Channel(s) : 6 channels
Channel positions : Front: L C R, Side: L R, LFE
Sampling rate : 48.0 KHz
Bit depth : 24 bits
Compression mode : Lossless / Lossy
Title : DVO Omicron
Language : Russian
Default : No
Forced : No
Audio #3
ID : 4
Format : DTS
Format/Info : Digital Theater Systems
Format profile : MA / Core
Codec ID : A_DTS
Duration : 1h 51mn
Bit rate mode : Variable
Bit rate : 1 561 Kbps / 1 510 Kbps
Channel(s) : 6 channels
Channel positions : Front: L C R, Side: L R, LFE
Sampling rate : 48.0 KHz
Bit depth : 24 bits
Compression mode : Lossless / Lossy
Title : Original
Language : English
Default : No
Forced : No
Text #1
ID : 5
Format : UTF-8
Codec ID : S_TEXT/UTF8
Codec ID/Info : UTF-8 Plain Text
Title : Forced
Language : Russian
Default : Yes
Forced : No
Text #2
ID : 6
Format : UTF-8
Codec ID : S_TEXT/UTF8
Codec ID/Info : UTF-8 Plain Text
Title : BD
Language : Russian
Default : No
Forced : No
Text #3
ID : 7
Format : UTF-8
Codec ID : S_TEXT/UTF8
Codec ID/Info : UTF-8 Plain Text
Language : English
Default : No
Forced : No
Menu
00:00:00.000 : en:00:00:00.000
00:09:28.943 : en:00:09:28.943
00:19:15.237 : en:00:19:15.237
00:34:47.752 : en:00:34:47.752
00:48:00.002 : en:00:48:00.002
00:59:23.310 : en:00:59:23.310
01:13:24.025 : en:01:13:24.025
01:25:24.995 : en:01:25:24.995
01:37:01.441 : en:01:37:01.441
01:44:19.378 : en:01:44:19.378

Скриншоты


Скачать

Скачать торрент!

Как скачивать? · Что такое торрент? · Рейтинг и ограничения

Сайт не распространяет и не хранит электронные версии произведений, а лишь предоставляет доступ к создаваемому пользователями каталогу ссылок на торрент-файлы, которые содержат только списки хеш-сумм

[Профиль] [ЛС]
Показать сообщения:    
Ответить на тему

Текущее время: Сегодня 00:21

Часовой пояс: GMT + 4



Вы не можете начинать темы
Вы не можете отвечать на сообщения
Вы не можете редактировать свои сообщения
Вы не можете удалять свои сообщения
Вы не можете голосовать в опросах
Вы не можете прикреплять файлы к сообщениям
Вы не можете скачивать файлы