Глубина / Below (Дэвид Туи / David Twohy) [2002, США, ужасы, триллер, детектив, BDRip 1080p] Dub + MVO + DVO + Sub Rus + Original Eng

Ответить на тему
 
Автор Сообщение

user ®

Стаж: 7 лет 7 месяцев

Сообщений: 20008

Пост Пост: #1 от 18-Сен-2013 18:35

[Цитировать]

-Глубина / Below-Страна: США
Жанр: ужасы, триллер, детектив
Год выпуска: 2002
Продолжительность: 01:45:19-Перевод: Профессиональный (дублированный)
Перевод 2: Профессиональный (многоголосый закадровый)
Перевод 3: Профессиональный (двухголосый закадровый)
Cубтитры: русские , английские
Оригинальная аудиодорожка: английский-Режиссер: Дэвид Туи / David Twohy
В ролях: Мэттью Дэвис, Брюс Гринвуд, Холт МакКэллани, Декстер Флетчер, Ник Чинланд, Оливия Уильямс, Скотт Фоули, Эндрю Ховард, Кристофер Фэйрбэнк, Чак Эллсворт-Описание: Разгар Второй мировой войны. Американская подводная лодка «Манта», посланная на выручку оставшимся в живых членам экипажа британского плавучего госпиталя, вынуждена скрываться на глубине от шныряющих ближе к поверхности немецких субмарин. Уходя ближе ко дну, подводники обнаруживают, что там, внизу, есть еще что-то, и это явно не нацистские судна, а нечто необъяснимое и, возможно, сверхъестественное...-Сэмпл: http://yadi.sk/d/jGrevT2h9Tvoi-Тип релиза: BDRip 1080p
Контейнер: MKV
Видео: MPEG-4 AVC Video / 17.2 Mbps / 1920x1080p / 23.976 fps / 16:9 / High Profile 4.1
Аудио: Russian AC3 6ch 48kHz 384Kbps | Dub
Аудио 2: Russian AC3 6ch 48kHz 448Kbps | MVO
Аудио 3: Russian AC3 6ch 48kHz 384Kbps | DVO
Аудио 4: English AC3 6ch 48kHz 448Kbps | Original (DVD R1)
Аудио 5: English FLAC 2ch 48kHz ~521Kbps | Original (BD)
Формат субтитров: softsub (SRT)

Видеоряд от EbP

RELEASE NAME..: Below 2002 1080p BluRay DD5.1 x264 EbPRELEASE DATE..: Sep 30 2012RUNTiME.......: 1h:45mnSiZE..........: 13.5 GibViDEO CODEC...: x264, CRF, L4.1FRAMERATE.....: 23.976 fpsBiTRATE.......: 17.2 Mbps (avg.)RESOLUTiON....: 1920x1080AUDiO.........: English AC3 5.1 @ 448 Kbps (from DVD)AUDiO 2.......: English FLAC 2.0 @ 521 Kbps (from Bluray)AUDiO 3.......: Commentary AAC 2.0 @ 64 Kbps (from DVD)SUBTiTLES.....: English (.srt)CHAPTER.......: YES/NamedSOURCE 1......: BELOW_DARKNESS_DOUBLE_FEATURE (Video, FLAC 2.0)SOURCE 2......: Below NTSC DVD R1 (AC3 5.1, Commentary, subtitle, chapter name)-Source (left) | EbP (right)-


MI

GeneralComplete name : X:\ -= Фильмы =-\Глубина (2002. Below).mkvFormat : MatroskaFile size : 14.3 GiBDuration : 1h 45mnOverall bit rate : 19.4 MbpsMovie name : Release for date : UTC 2013-09-18 07:05:19Writing application : mkvmerge v4.9.1 ('Ich will') сборка от Jul 11 2011 23:53:15Writing library : libebml v1.2.1 + libmatroska v1.1.1
VideoID : 1Format : AVCFormat/Info : Advanced Video CodecFormat profile : High@L4.1Format settings, CABAC : YesFormat settings, ReFrames : 4 framesFormat settings, GOP : M=8, N=16Muxing mode : Container profile=Unknown@4.1Codec ID : V_MPEG4/ISO/AVCDuration : 1h 45mnWidth : 1 920 pixelsHeight : 1 080 pixelsDisplay aspect ratio : 16:9Frame rate : 23.976 fpsColor space : YUVChroma subsampling : 4:2:0Bit depth : 8 bitsScan type : ProgressiveTitle : Below 2002 1080p BluRay DD5.1 x264 EbPWriting library : x264 core 125 r2208 d9d2288Encoding settings : cabac=1 / ref=4 / deblock=1:-3:-3 / analyse=0x3:0x113 / me=tesa / subme=11 / psy=1 / psy_rd=1.20:0.00 / mixed_ref=1 / me_range=16 / chroma_me=1 / trellis=2 / 8x8dct=1 / cqm=0 / deadzone=21,11 / fast_pskip=0 / chroma_qp_offset=-2 / threads=12 / lookahead_threads=2 / sliced_threads=0 / nr=0 / decimate=0 / interlaced=0 / bluray_compat=0 / constrained_intra=0 / bframes=7 / b_pyramid=2 / b_adapt=2 / b_bias=0 / direct=3 / weightb=1 / open_gop=0 / weightp=2 / keyint=250 / keyint_min=23 / scenecut=40 / intra_refresh=0 / rc=crf / mbtree=0 / crf=17.0 / qcomp=0.55 / qpmin=0 / qpmax=69 / qpstep=4 / ip_ratio=1.40 / pb_ratio=1.30 / aq=1:0.65Language : EnglishMatrix coefficients : BT.709-5, BT.1361, IEC 61966-2-4 709, SMPTE RP177
Audio #1ID : 2Format : AC-3Format/Info : Audio Coding 3Mode extension : CM (complete main)Codec ID : A_AC3Duration : 1h 45mnBit rate mode : ConstantBit rate : 384 KbpsChannel(s) : 6 channelsChannel positions : Front: L C R, Side: L R, LFESampling rate : 48.0 KHzBit depth : 16 bitsStream size : 289 MiB (2%)Title : DubLanguage : Russian
Audio #2ID : 3Format : AC-3Format/Info : Audio Coding 3Mode extension : CM (complete main)Codec ID : A_AC3Duration : 1h 45mnBit rate mode : ConstantBit rate : 448 KbpsChannel(s) : 6 channelsChannel positions : Front: L C R, Side: L R, LFESampling rate : 48.0 KHzBit depth : 16 bitsStream size : 338 MiB (2%)Title : MVOLanguage : Russian
Audio #3ID : 4Format : AC-3Format/Info : Audio Coding 3Mode extension : CM (complete main)Codec ID : A_AC3Duration : 1h 45mnBit rate mode : ConstantBit rate : 384 KbpsChannel(s) : 6 channelsChannel positions : Front: L C R, Side: L R, LFESampling rate : 48.0 KHzBit depth : 16 bitsStream size : 289 MiB (2%)Title : DVOLanguage : Russian
Audio #4ID : 5Format : AC-3Format/Info : Audio Coding 3Mode extension : CM (complete main)Codec ID : A_AC3Duration : 1h 45mnBit rate mode : ConstantBit rate : 448 KbpsChannel(s) : 6 channelsChannel positions : Front: L C R, Side: L R, LFESampling rate : 48.0 KHzBit depth : 16 bitsStream size : 338 MiB (2%)Title : Original 5.1 DVDLanguage : English
Audio #5ID : 6Format : FLACFormat/Info : Free Lossless Audio CodecCodec ID : A_FLACDuration : 1h 45mnBit rate mode : VariableChannel(s) : 2 channelsSampling rate : 48.0 KHzBit depth : 16 bitsTitle : Original 2.0 BDWriting library : libFLAC 1.2.1 (UTC 2007-09-17)Language : English
Text #1ID : 7Format : UTF-8Codec ID : S_TEXT/UTF8Codec ID/Info : UTF-8 Plain TextLanguage : Russian
Text #2ID : 8Format : UTF-8Codec ID : S_TEXT/UTF8Codec ID/Info : UTF-8 Plain TextLanguage : English
Menu00:00:00.000 : en:1. "Will Send Help"00:03:40.166 : en:2. Battle Stations00:06:37.499 : en:3. "One's a Skirt"00:12:51.665 : en:4. "Sonar Contact! Full Stop"00:18:35.998 : en:5. "Wake the German Up!"00:21:56.998 : en:6. Some Bad Hoodoo00:39:22.698 : en:7. "They're Using Their Hooks"00:42:13.998 : en:8. Repairing the Hull00:48:15.365 : en:9. "This Submarine Is Haunted"01:00:18.531 : en:10. "A Bloody Mechanical Problem"01:04:06.198 : en:11. "We're Going Backwards"01:06:30.198 : en:12. "Where's Our Crew?"01:14:09.165 : en:13. "What Happened That Night?"01:20:08.032 : en:14. The Wrong Ship01:25:39.332 : en:15. "Everybody Pull!"01:28:52.532 : en:16. "I'm Feeling Better, Now"01:30:51.698 : en:17. Rescued01:38:25.998 : en:18. End Credits

Скриншоты


Скачать

Скачать торрент!

Как скачивать? · Что такое торрент? · Рейтинг и ограничения

Сайт не распространяет и не хранит электронные версии произведений, а лишь предоставляет доступ к создаваемому пользователями каталогу ссылок на торрент-файлы, которые содержат только списки хеш-сумм

[Профиль] [ЛС]
Показать сообщения:    
Ответить на тему

Текущее время: Сегодня 06:16

Часовой пояс: GMT + 4



Вы не можете начинать темы
Вы не можете отвечать на сообщения
Вы не можете редактировать свои сообщения
Вы не можете удалять свои сообщения
Вы не можете голосовать в опросах
Вы не можете прикреплять файлы к сообщениям
Вы не можете скачивать файлы