Копейка (Иван Дыховичный) [2002, черная комедия, DVDRip]

Ответить на тему
 
Автор Сообщение

user ®

Стаж: 7 лет 7 месяцев

Сообщений: 20008

Пост Пост: #1 от 18-Сен-2013 18:35

[Цитировать]

Копейка
Жанр: черная комедия, трагикомедия
Год выпуска: 2002
Продолжительность: 01:57:35
-
Режиссёр: Иван Дыховичный
В ролях: Алёна Бабенко, Ольга Дыховичная, Олег Ковалов, Андрей Краско, Валерий Кудряшов, Александра Куликова, Роман Мадянов, Сергей Мазаев, Сергей Шнуров, Владимир Сорокин, Юрий Цурило
-
Описание: Лихие приключения ВАЗ-2101, «Жигули» первой модели, легендарной «копейки», которая тридцать лет назад была настоящей «богиней» для миллионов советских людей. «Вечная и неразменная», покалеченная, измордованная и реанимированная «золотыми руками» мастера Бубуки, она путешествует от члена политбюро к проститутке, от черноморского каталы к простому гэбэшнику, от предприимчивого пенсионера к физику-диссиденту-лауреату Госпремии из новосибирского Академгородка. Непотопляемый и несгораемый народный автомобиль с ветерком и лязгом катится по дорогам, временам и судьбам, превращается в дом и корабль, в кровать и гроб, очаровывает и вызывает ужас, приносит счастье и губит…
-
Плавающий кроп - слева.
-
Качество видео: DVDRip
Формат видео: AVI
Видео: 688x400 (1.72:1), 25 fps, XviD build 73 ~1386 kbps avg, 0.20 bit/pixel
Аудио: 48 kHz, AC3 Dolby Digital, 3/2 (L,C,R,l,r) + LFE ch, ~384 kbps

MediaInfo

General
Complete name : D:\Релизы\Копейка.2002.DVDRip.XviD.AC3.avi
Format : AVI
Format/Info : Audio Video Interleave
File size : 1.46 GiB
Duration : 1h 57mn
Overall bit rate : 1 780 Kbps
Writing application : VirtualDubMod 1.5.10.2 (build 2540/release)
Writing library : VirtualDubMod build 2540/release
Video
ID : 0
Format : MPEG-4 Visual
Format profile : Advanced Simple@L5
Format settings, BVOP : 1
Format settings, QPel : No
Format settings, GMC : No warppoints
Format settings, Matrix : Custom
Codec ID : XVID
Codec ID/Hint : XviD
Duration : 1h 57mn
Bit rate : 1 386 Kbps
Width : 688 pixels
Height : 400 pixels
Display aspect ratio : 1.720
Frame rate : 25.000 fps
Color space : YUV
Chroma subsampling : 4:2:0
Bit depth : 8 bits
Scan type : Progressive
Compression mode : Lossy
Bits/(Pixel*Frame) : 0.201
Stream size : 1.14 GiB (78%)
Writing library : XviD 73
Audio
ID : 1
Format : AC-3
Format/Info : Audio Coding 3
Mode extension : CM (complete main)
Format settings, Endianness : Big
Codec ID : 2000
Duration : 1h 57mn
Bit rate mode : Constant
Bit rate : 384 Kbps
Channel(s) : 6 channels
Channel positions : Front: L C R, Side: L R, LFE
Sampling rate : 48.0 KHz
Bit depth : 16 bits
Compression mode : Lossy
Stream size : 323 MiB (22%)
Alignment : Split accross interleaves
Interleave, duration : 40 ms (1.00 video frame)
Interleave, preload duration : 500 ms

Скриншоты

Скачать

Скачать торрент!

Как скачивать? · Что такое торрент? · Рейтинг и ограничения

Сайт не распространяет и не хранит электронные версии произведений, а лишь предоставляет доступ к создаваемому пользователями каталогу ссылок на торрент-файлы, которые содержат только списки хеш-сумм

[Профиль] [ЛС]
Показать сообщения:    
Ответить на тему

Текущее время: Сегодня 20:38

Часовой пояс: GMT + 4



Вы не можете начинать темы
Вы не можете отвечать на сообщения
Вы не можете редактировать свои сообщения
Вы не можете удалять свои сообщения
Вы не можете голосовать в опросах
Вы не можете прикреплять файлы к сообщениям
Вы не можете скачивать файлы