Корни и ветви / Мои братья и сёстры / Roots and Branches (Чжон Юй / Zhong Yu, Юэ Чун / Yue Chung) [2001, Гонконг, Драма, DVDRip] VO D.I.M.

Ответить на тему
 
Автор Сообщение

user ®

Стаж: 11 лет

Сообщений: 15151

Пост Пост: #1 от 18-Сен-2013 15:25

[Цитировать]

Корни и ветви / Мои братья и сёстры / Roots and Branches
Страна: Гонконг
Жанр: Драма
Год выпуска: 2001
Продолжительность: 1:34:49
Перевод: Одноголосый закадровый D.I.M.
Cубтитры: нет
Режиссер: Чжон Юй / Zhong Yu, Юэ Чун / Yue Chung
В ролях: Цзянь Цуй / Jian Cui
У Цзян / Wu Jiang
И Ся / Yu Xia
Цзяньсинь Чжан / Jianxin Zhang
Описание: 20 лет назад сильный снегопад сделал из четырёх детей сирот.
Ику, старший брат, решил приютить двух сестёр и брата в добрых семьях.
Чтобы потом всем воссоединиться он раздал каждому фотографию,
где они снялись все вместе.
Через 20 лет старшая сестра приезжает в Китай, чтобы выступить с концертом.
Но на самом деле её больше всего волнует воссоединение со своими
братьями и сестрой.
В фильме было много мест без англ.сабов.
По сравнению с "Пойманной в сеть" удалось мало чего разобрать.
Такой китайский английский я плохо разбираю.
Да к тому же звук в фильме убит шумодавами.
Что получилось, то уж получилось.
Это шестьдесят седьмой фильм с моим переводом и озвучкой, выложенный здесь.
Любители душевного кино могут найти для себя что-то интересное.
Сэмпл: http://multi-up.com/904460
Качество видео: DVDRip
Формат видео: AVI
Видео: 720*416 (16:9), 23,976 fps, MPEG-4 Visual (XviD) ~ 1928 kbps avg, 0.269 bit/pixel
Аудио: MPEG Audio Layer 3, 48000Hz, stereo, 128kbps

MediaInfo

Общее
Полное имя : D:\TORENT\РАЗДАЧИ (РИПЫ)\ROOTS AND BRANCHES.avi
Формат : AVI
Формат/Информация : Audio Video Interleave
Размер файла : 1,37 Гбайт
Продолжительность : 1 ч. 34 м.
Общий поток : 2066 Кбит/сек
Программа кодирования : VirtualDubModRus 1.5.10.2 (build 2542/release)
Библиотека кодирования : VirtualDubMod build 2542/release
Видео
Идентификатор : 0
Формат : MPEG-4 Visual
Профиль формата : Advanced Simple@L5
Параметр BVOP формата : 1
Параметр QPel формата : Нет
Параметр GMC формата : Без точки перехода
Параметр матрицы формата : Выборочная
Идентификатор кодека : XVID
Идентификатор кодека/Подсказка : XviD
Продолжительность : 1 ч. 34 м.
Битрейт : 1928 Кбит/сек
Ширина : 720 пикс.
Высота : 416 пикс.
Соотношение сторон : 16:9
Частота кадров : 23,976 кадр/сек
Цветовое пространство : YUV
Подвыборка цветности : 4:2:0
Битовая глубина : 8 бит
Тип развёртки : Прогрессивная
Метод сжатия : С потерями
Бит/(Пиксели*Кадры) : 0.269
Размер потока : 1,28 Гбайт (93%)
Библиотека кодирования : XviD 63
Аудио
Идентификатор : 1
Формат : MPEG Audio
Версия формата : Version 1
Профиль формата : Layer 3
Режим : Joint stereo
Расширение режима : MS Stereo
Идентификатор кодека : 55
Идентификатор кодека/Подсказка : MP3
Продолжительность : 1 ч. 34 м.
Вид битрейта : Постоянный
Битрейт : 128 Кбит/сек
Канал(ы) : 2 канала(ов)
Частота : 48,0 КГц
Метод сжатия : С потерями
Размер потока : 86,8 Мбайт (6%)
Выравнивание : Соединение по промежуткам
Продолжительность промежутка : 42 мс. (1,00 видеокадр)
Время предзагрузки промежутка : 504 ms
Язык : Chinese

Скриншот c названием фильма

Скриншоты

Скачать

Скачать торрент! Корни и ветви / Мои братья и сёстры / Roots and Branches (Чжон Юй / Zhong Yu, Юэ Чун / Yue Chung) [2001, Гонконг, Драма, DVDRip] VO D.I.M.

Как скачивать? · Что такое торрент? · Рейтинг и ограничения

Сайт не распространяет и не хранит электронные версии произведений, а лишь предоставляет доступ к создаваемому пользователями каталогу ссылок на торрент-файлы, которые содержат только списки хеш-сумм

[Профиль] [ЛС]
Показать сообщения:    
Ответить на тему

Текущее время: Сегодня 13:01

Часовой пояс: GMT + 4



Вы не можете начинать темы
Вы не можете отвечать на сообщения
Вы не можете редактировать свои сообщения
Вы не можете удалять свои сообщения
Вы не можете голосовать в опросах
Вы не можете прикреплять файлы к сообщениям
Вы не можете скачивать файлы