Темные круги / Dark Circles (Пол Сотер / Paul Soter) [2013, США, Триллер, ужасы, WEB-DLRip] VO (den904)

Ответить на тему
 
Автор Сообщение

user ®

Стаж: 7 лет 7 месяцев

Сообщений: 20008

Пост Пост: #1 от 18-Сен-2013 02:45

[Цитировать]

Темные круги / Dark Circles«Sleep When You're Dead»- Страна: США
Жанр: Триллер, ужасы
Год выпуска: 2013
Продолжительность: 01:26:36-Перевод: Одноголосый закадровый [den904]
Cубтитры: нет-Режиссер: Пол Сотер / Paul Soter-В ролях: Бретт Бьюбэй, Филипп Бреннинкмейер, Ребекка Коллинз, Дженнифер Формен, Андреа Франкл, Энтони Майкл Фредерик, Деррик Фриман, Пелл Джеймс, Арабелла Ландрум, Эвер Элуиз Ландрум-Описание: Молодые родители переезжают из шумного города в сельскую местность. Но на новом месте их не ждал покой. Новые хозяева дома начинают видеть ужасные видения, вызванные их ребенком. Похоже домом владеют темные сверхъестественные силы, которые пробудились от долгой спячки…-Sample | IMDB | КиноПоиск-Тип релиза: WEB-DLRip [исх. WEB-DL 720p]
Формат видео: AVI-Видео: 720x288 (2.50:1), 23.976 fps, XviD build 50, 1947 kbps avg, 0.39 bit/pixel
Аудио: 48 kHz, AC3 Dolby Digital, 3/2 (L,C,R,l,r) + LFE ch, 448.00 kbps avg [Russian_VO]-Релиз группы:-

MediaInfo

General
Complete name : E:\Мои раздачи\Dark Circles_WEB-DLRip_RG_All_Films.avi
Format : AVI
Format/Info : Audio Video Interleave
File size : 1.45 GiB
Duration : 1h 26mn
Overall bit rate : 2 405 Kbps
Writing application : VirtualDubMod 1.6.0.0 SURROUND (build 2560/release)
Writing library : VirtualDubMod build 2560/release
Video
ID : 0
Format : MPEG-4 Visual
Format profile : Advanced Simple@L5
Format settings, BVOP : Yes
Format settings, QPel : No
Format settings, GMC : No warppoints
Format settings, Matrix : Custom
Codec ID : XVID
Codec ID/Hint : XviD
Duration : 1h 26mn
Bit rate : 1 948 Kbps
Width : 720 pixels
Height : 288 pixels
Display aspect ratio : 2.500
Frame rate : 23.976 fps
Color space : YUV
Chroma subsampling : 4:2:0
Bit depth : 8 bits
Scan type : Progressive
Compression mode : Lossy
Bits/(Pixel*Frame) : 0.392
Stream size : 1.18 GiB (81%)
Writing library : XviD 1.2.1 (UTC 2008-12-04)
Audio
ID : 1
Format : AC-3
Format/Info : Audio Coding 3
Mode extension : CM (complete main)
Codec ID : 2000
Duration : 1h 26mn
Bit rate mode : Constant
Bit rate : 448 Kbps
Channel(s) : 6 channels
Channel positions : Front: L C R, Side: L R, LFE
Sampling rate : 48.0 KHz
Bit depth : 16 bits
Compression mode : Lossy
Stream size : 278 MiB (19%)
Alignment : Split accross interleaves
Interleave, duration : 42 ms (1.00 video frame)
Interleave, preload duration : 500 ms

Скриншоты

Скачать

Скачать торрент!

Как скачивать? · Что такое торрент? · Рейтинг и ограничения

Сайт не распространяет и не хранит электронные версии произведений, а лишь предоставляет доступ к создаваемому пользователями каталогу ссылок на торрент-файлы, которые содержат только списки хеш-сумм

[Профиль] [ЛС]
Показать сообщения:    
Ответить на тему

Текущее время: Сегодня 08:10

Часовой пояс: GMT + 4



Вы не можете начинать темы
Вы не можете отвечать на сообщения
Вы не можете редактировать свои сообщения
Вы не можете удалять свои сообщения
Вы не можете голосовать в опросах
Вы не можете прикреплять файлы к сообщениям
Вы не можете скачивать файлы