После нашей эры / After Earth (М. Найт Шьямалан / M. Night Shyamalan) [2013, США, Фантастика, приключения, боевик, WEB-DLRip-AVC] Dub

Ответить на тему
 
Автор Сообщение

user ®

Стаж: 7 лет 7 месяцев

Сообщений: 20008

Пост Пост: #1 от 17-Сен-2013 23:40

[Цитировать]

После нашей эры / After Earth
«Danger is real. Fear is a choice.»
Страна: США / Columbia Pictures, Overbrook Entertainment
Жанр: Фантастика, приключения, боевик
Год выпуска: 2013
Продолжительность: 01:40:01
Перевод: Профессиональный (полное дублирование) [iTunes Russia]
Cубтитры: Нет
Режиссер: М. Найт Шьямалан / M. Night Shyamalan
В ролях: Джейден Смит, Уилл Смит, Софи Оконедо, Зои Кравиц, Гленн Моршауэр, Кристофер Хивджу, Саша Дхаван, Крис Гир, Диего Клаттенхофф, Дэвид Денман
Описание: События разворачиваются через тысячу лет после катастрофы, вынудившей человечество покинуть Землю. Новым домом становится планета под названием Нова Прайм. Легендарный генерал Сайфер Рейдж возвращается с очередного боевого задания в семью, которая раньше обходилась без его родительского внимания, чтобы стать отцом своему 13-летнему сыну Китаю. Во время астероидной бури летательный аппарат с папой и сыном на борту терпит крушение, падая на незнакомую и опасную Землю. И пока Рейдж-старший на последнем дыхании лежит среди обломков своего корабля, сын должен пересечь враждебный ландшафт, чтобы запустить их спасательный маячок. Ни о чем большем юноша в своей жизни не мечтал: быть солдатом, как отец, — его заветное желание. Сегодня у него есть шанс проявить себя.
|
Релиз:
Автор рипа: S.T.A.L.K.E.R.2 (aka Stalker oK)
Сэмпл: http://multi-up.com/904279
Качество: WEB-DLRip-AVC [WEB-DL 720р]
Формат: MKV
Видео кодек: AVC
Аудио кодек: AC3
Видео: 1694 Кбит/сек, 996*414 (2,40:1), в 23,976 кадр/сек, AVC
Аудио: Russian, 384 Кбит/сек, 48,0 КГц, 16 бит, 6 канала(ов), AC-3

MediaInfo

Общее
Уникальный идентификатор : 170399790391763983869176344700102686455 (0x8031CE4E5DDEDA1092E44E8FC978B6F7)
Полное имя : H:\После нашей эры\Posle_nashej_jery_2013_WEB_DLRip_AVC_Dub__stalkerok.mkv
Формат : Matroska
Размер файла : 1,45 Гбайт
Продолжительность : 1 ч. 40 м.
Общий поток : 2078 Кбит/сек
Название фильма : After Earth 2013 (Youtracker) (Rip by Stalker oK)
Дата кодирования : UTC 2013-09-17 13:12:44
Программа кодирования : mkvmerge v6.2.0 ('Promised Land') built on Apr 28 2013 12:22:01
Библиотека кодирования : libebml v1.3.0 + libmatroska v1.4.0
Видео
Идентификатор : 1
Формат : AVC
Формат/Информация : Advanced Video Codec
Профиль формата : High@L4.1
Параметр CABAC формата : Да
Параметр ReFrames формата : 10 кадры
Идентификатор кодека : V_MPEG4/ISO/AVC
Продолжительность : 1 ч. 40 м.
Битрейт : 1694 Кбит/сек
Ширина : 996 пикс.
Высота : 414 пикс.
Соотношение сторон : 2,40:1
Частота кадров : 23,976 кадр/сек
Цветовое пространство : YUV
Подвыборка цветности : 4:2:0
Битовая глубина : 8 бит
Тип развёртки : Прогрессивная
Бит/(Пиксели*Кадры) : 0.171
Размер потока : 1,15 Гбайт (80%)
Библиотека кодирования : x264 core 130 r2273 b3065e6
Настройки программы : cabac=1 / ref=10 / deblock=1:-2:-2 / analyse=0x3:0x133 / me=umh / subme=11 / psy=1 / psy_rd=1.05:0.15 / mixed_ref=1 / me_range=48 / chroma_me=1 / trellis=2 / 8x8dct=1 / cqm=0 / deadzone=21,11 / fast_pskip=0 / chroma_qp_offset=-3 / threads=4 / lookahead_threads=1 / sliced_threads=0 / nr=0 / decimate=0 / interlaced=0 / bluray_compat=0 / constrained_intra=0 / bframes=12 / b_pyramid=2 / b_adapt=2 / b_bias=0 / direct=3 / weightb=1 / open_gop=0 / weightp=2 / keyint=240 / keyint_min=23 / scenecut=40 / intra_refresh=0 / rc_lookahead=60 / rc=2pass / mbtree=1 / bitrate=1694 / ratetol=2.0 / qcomp=0.70 / qpmin=0 / qpmax=69 / qpstep=4 / cplxblur=20.0 / qblur=0.5 / vbv_maxrate=35000 / vbv_bufsize=40000 / nal_hrd=none / ip_ratio=1.25 / aq=2:0.80
Аудио
Идентификатор : 2
Формат : AC-3
Формат/Информация : Audio Coding 3
Расширение режима : CM (complete main)
Идентификатор кодека : A_AC3
Продолжительность : 1 ч. 40 м.
Вид битрейта : Постоянный
Битрейт : 384 Кбит/сек
Канал(ы) : 6 канала(ов)
Расположение каналов : Front: L C R, Side: L R, LFE
Частота : 48,0 КГц
Битовая глубина : 16 бит
Метод сжатия : С потерями
Размер потока : 275 Мбайт (18%)
Заголовок : AC3 5.1 @ 384 kbps - DUB, iTunes
Язык : Russian
Меню
00:00:00.000 : en:1
00:08:51.000 : en:2
00:15:34.000 : en:3
00:21:32.000 : en:4
00:30:47.000 : en:5
00:36:42.000 : en:6
00:41:10.000 : en:7
00:47:02.000 : en:8
00:52:32.000 : en:9
00:59:44.000 : en:10
01:05:20.000 : en:11
01:11:04.000 : en:12
01:15:41.000 : en:13
01:20:11.000 : en:14
01:24:32.000 : en:15
01:29:51.000 : en:16

Скриншоты

Скачать

Скачать торрент!

Как скачивать? · Что такое торрент? · Рейтинг и ограничения

Сайт не распространяет и не хранит электронные версии произведений, а лишь предоставляет доступ к создаваемому пользователями каталогу ссылок на торрент-файлы, которые содержат только списки хеш-сумм

[Профиль] [ЛС]
Показать сообщения:    
Ответить на тему

Текущее время: Сегодня 18:10

Часовой пояс: GMT + 4



Вы не можете начинать темы
Вы не можете отвечать на сообщения
Вы не можете редактировать свои сообщения
Вы не можете удалять свои сообщения
Вы не можете голосовать в опросах
Вы не можете прикреплять файлы к сообщениям
Вы не можете скачивать файлы