Мой пёс Доу Доу / My Dog Dou Dou (Нг Сай Юн / Ng Say Yong) [2012, Сингапур, Драма, DVDRip] VO D.I.M.

Ответить на тему
 
Автор Сообщение

user ®

Стаж: 11 лет

Сообщений: 15151

Пост Пост: #1 от 17-Сен-2013 17:20

[Цитировать]

Мой пёс Доу Доу / My Dog Dou Dou
Страна: Сингапур
Жанр: Драма
Год выпуска: 2012
Продолжительность: 01:35:48
Перевод: Одноголосый закадровый D.I.M.
Cубтитры: нет
Режиссер: Нг Сай Юн / Ng Say Yong
В ролях: Джейсон Ван / Jason Wang
Айвен Ло / Ivan Lo
Кэтрин Ли / Cathryn Lee
Элвин Вонг / Alvin Wong
Томми Куань / Tommy Kuan
Описание: Маленький Син подобрал на улице собаку.
И хотя его отец не любит собак,
ради сына он пошёл на то, чтобы приютить пса.
Но оказалось, что пёс может угадывать выигрышные числа в лотерее,
и тогда за ним начинают охотится кредиторы отца,
которым он задолжал кучу денег....
Внимание. В фильме никакого счастливого конца.
Тем, кто помнит "Сердечко", аккуратнее с просмотром.

В фильме на некоторые места не было анг. субтитров,
поэтому по наитию вставил то, что пришло на ум.
Это шестьдесят пятый фильм с моим переводом и озвучкой, выложенный здесь.
Любители душевного кино могут найти для себя что-то интересное.
Сэмпл: http://multi-up.com/904197
Качество видео: DVDRip
Формат видео: AVI
Видео: 720*320 (2,25:1), 23,976 fps, MPEG-4 Visual (XviD) ~ 1615 kbps avg, 0.280 bit/pixel
Аудио: MPEG Audio Layer 3, 48000Hz, stereo, 128kbps

MediaInfo

Общее
Полное имя : D:\TORENT\РАЗДАЧИ (РИПЫ)\My Dog Dou Dou.avi
Формат : AVI
Формат/Информация : Audio Video Interleave
Размер файла : 1,17 Гбайт
Продолжительность : 1 ч. 35 м.
Общий поток : 1753 Кбит/сек
Программа кодирования : VirtualDubModRus 1.5.10.2 (build 2542/release)
Библиотека кодирования : VirtualDubMod build 2542/release
Видео
Идентификатор : 0
Формат : MPEG-4 Visual
Профиль формата : Advanced Simple@L5
Параметр BVOP формата : Нет
Параметр QPel формата : Нет
Параметр GMC формата : Без точки перехода
Параметр матрицы формата : Выборочная
Идентификатор кодека : XVID
Идентификатор кодека/Подсказка : XviD
Продолжительность : 1 ч. 35 м.
Битрейт : 1615 Кбит/сек
Ширина : 720 пикс.
Высота : 320 пикс.
Соотношение сторон : 2,25:1
Частота кадров : 25,000 кадр/сек
Цветовое пространство : YUV
Подвыборка цветности : 4:2:0
Битовая глубина : 8 бит
Тип развёртки : Прогрессивная
Метод сжатия : С потерями
Бит/(Пиксели*Кадры) : 0.280
Размер потока : 1,08 Гбайт (92%)
Библиотека кодирования : XviD 63
Аудио
Идентификатор : 1
Формат : MPEG Audio
Версия формата : Version 1
Профиль формата : Layer 3
Режим : Joint stereo
Расширение режима : MS Stereo
Идентификатор кодека : 55
Идентификатор кодека/Подсказка : MP3
Продолжительность : 1 ч. 35 м.
Вид битрейта : Постоянный
Битрейт : 128 Кбит/сек
Канал(ы) : 2 канала(ов)
Частота : 48,0 КГц
Метод сжатия : С потерями
Размер потока : 87,7 Мбайт (7%)
Выравнивание : Соединение по промежуткам
Продолжительность промежутка : 40 мс. (1,00 видеокадр)
Время предзагрузки промежутка : 504 ms
Библиотека кодирования : LAME3.98.2
Язык : Russian

Скриншот c названием фильма

Скриншоты

Скачать

Скачать торрент! Мой пёс Доу Доу / My Dog Dou Dou (Нг Сай Юн / Ng Say Yong) [2012, Сингапур, Драма, DVDRip] VO D.I.M.

Как скачивать? · Что такое торрент? · Рейтинг и ограничения

Сайт не распространяет и не хранит электронные версии произведений, а лишь предоставляет доступ к создаваемому пользователями каталогу ссылок на торрент-файлы, которые содержат только списки хеш-сумм

[Профиль] [ЛС]
Показать сообщения:    
Ответить на тему

Текущее время: Сегодня 18:35

Часовой пояс: GMT + 4



Вы не можете начинать темы
Вы не можете отвечать на сообщения
Вы не можете редактировать свои сообщения
Вы не можете удалять свои сообщения
Вы не можете голосовать в опросах
Вы не можете прикреплять файлы к сообщениям
Вы не можете скачивать файлы