Неверный возлюбленный / Sanam Bewafa (Саван Кумар Так / Saawan Kumar Tak) [1991, Индия, Мелодрама, DVDRip] VO

Ответить на тему
 
Автор Сообщение

user ®

Стаж: 12 лет

Сообщений: 15092

Пост Пост: #1 от 17-Сен-2013 17:20

[Цитировать]

Неверный возлюбленный / Sanam Bewafa
Страна: Индия
Жанр: Мелодрама
Год выпуска: 1991
Продолжительность: 02:47:16
Перевод: Профессиональный (oдноголосый, закадровый)
Cубтитры: нет
Оригинальная аудиодорожка: нет
Режиссер: Саван Кумар Так / Saawan Kumar Tak
В ролях: Салман Кхан, Чандни, Пран, Денни Дензонгпа, Канчан, Пунит Иссар, Джагдип, Дина Патхак, Мастер Алок, Виджаендра Гхатге, Таира Кхан, Гарбаччан Сингх, Джугну, Чандер Махаджан, Рашим Бакши, Дэн Даноа
Описание: Всесильная любовь соединила Салмана и Руксар, детей из двух враждующих знатных родов. Их отцы, богатые магнаты, поначалу соглашаются на свадьбу своих детей, но затем... Кровавые разборки между семьями зайдут так далеко, что даже жизнь ребенка Салмана и Руксар ляжет на алтарь ненависти...
Доп. информация:
Спасибо reza74 за DVD9 (Без перевода)
Русская звуковая дорожка взята с VHS
Песни с оригинальной дорожки
Рип, сведение и синхронизация звука: pca1962
Сэмпл: http://sendfile.su/868169
Качество видео: DVDRip
Формат видео: AVI
Видео: DivX, 640x352, 23.97 fps, 1634 kbps
Аудио: AC3, 48 kHz, 2.0 (stereo), 192 kbps

MediaInfo

=== Общие ===
Полное имя : Neverniy.vozlublenniy.1991.DVDRip.DivX.pca1962.avi
Формат : AVI
Описание формата : Audio Video Interleave
Профиль формата : OpenDML
Размер файла : 2.15 Гб
Длительность : 2ч 47мин
Общий битрейт : 1 838 кбит/сек
Програмное обеспечение : VirtualDubModRus 1.5.10.2 (build 2542/release)
Кодирующая библиотека : VirtualDubMod build 2542/release
=== Видео ===
ID (Идентификатор) : 0
Формат : MPEG-4 Visual
Профиль формата : Advanced Simple@L5
Параметр 'BVOP' : 2
Параметр 'QPel' : Нет
Параметр 'GMC' : No warppoints
Параметр 'Matrix' : Default (MPEG)
Идентификатор кодека : DX50
Подпись кодека : DivX 5
Длительность : 2ч 47мин
Битрейт : 1634 кбит/сек
Ширина кадра : 640 пикселей
Высота кадра : 352 пикселей
Соотношение сторон : 16:9
Частота кадров : 23.976 кадров/сек
Цветовое пространство : YUV
Субдискретизация насыщенности : 4:2:0
Глубина (разрядность) : 8 bits
Тип развертки : Прогрессивная
Режим сжатия : С потерями
Бит/(пиксель*кадр) : 0.303
Размер потока : 1.91 Гб (89%)
Кодирующая библиотека : XviD 1.2.1 (UTC 2008-12-04)
=== Аудио ===
ID (Идентификатор) : 1
Формат : AC-3
Описание формата : Audio Coding 3
Mode extension : CM (complete main)
Идентификатор кодека : 2000
Длительность : 2ч 47мин
Тип битрейта : Постоянный
Битрейт : 192 кбит/сек
Канал(ы) : 2 каналов
Расположение каналов : Front: L R
Частота дискретизации : 48.0 кГц
Глубина (разрядность) : 16 bits
Режим сжатия : С потерями
Размер потока : 230 Мб (10%)
Расположение потока : Split accross interleaves
Период чередования : 42 мс (1.00 video frame)
Предварительная загрузка : 500 мс

Скриншот c названием фильма

Скачать

Скачать торрент! Неверный возлюбленный / Sanam Bewafa (Саван Кумар Так / Saawan Kumar Tak) [1991, Индия, Мелодрама, DVDRip] VO

Как скачивать? · Что такое торрент? · Рейтинг и ограничения

Сайт не распространяет и не хранит электронные версии произведений, а лишь предоставляет доступ к создаваемому пользователями каталогу ссылок на торрент-файлы, которые содержат только списки хеш-сумм

[Профиль] [ЛС]
Показать сообщения:    
Ответить на тему

Текущее время: Сегодня 03:12

Часовой пояс: GMT + 4



Вы не можете начинать темы
Вы не можете отвечать на сообщения
Вы не можете редактировать свои сообщения
Вы не можете удалять свои сообщения
Вы не можете голосовать в опросах
Вы не можете прикреплять файлы к сообщениям
Вы не можете скачивать файлы