Человеческий контракт / The Human Contract (Джада Пинкетт Смит / Jada Pinkett Smith) [2008, США, драма, BDRip 720p] DVO + Original eng + Sub rus, eng

Ответить на тему
 
Автор Сообщение

user ®

Стаж: 7 лет 7 месяцев

Сообщений: 20008

Пост Пост: #1 от 17-Сен-2013 17:20

[Цитировать]

Человеческий контракт / The Human Contract
Страна: США
Жанр: драма
Год выпуска: 2008
Продолжительность: 01:47:36
Перевод: Профессиональный (двухголосый закадровый) | НТВ
Cубтитры: русские, английские
Оригинальная аудиодорожка: английский
Режиссер: Джада Пинкетт Смит / Jada Pinkett Smith
В ролях: Джейсон Кларк, Паз Вега, Идрис Эльба, Ти-Джей Тайн, Джоанна Кэссиди, Стивен Брэнд, Джада Пинкетт Смит, Тед Дэнсон, Энн Рэмси, Тава Смайли
Описание: Молодой успешный управляющий рекламной компанией - идеальный представитель современного мегаполиса. Вся его жизнь под контролем, все время распланировано с точностью до минуты, а чувства и эмоции прочно спрятаны под маской любезности и деловым костюмом. Но встреча с прекрасной девушкой меняет его представления о реальности, и по мере развития их страсти ощущения благополучия и стабильности рассеивается, а наружу вылезают страхи прошлой жизни...

Тип релиза: BDRip 720p | sample
Контейнер: MKV
Видео кодек: x264
Видео: AVC 1280x720 (16:9), 23.976 fps, ~8500 Kbps, 0.39 bit/pixel
Аудио #1: Russian AC3 2ch 48kHz 192Kbps | DVO НТВ
Аудио #2: English DTS 6ch 48kHz 1510Kbps | Original
Формат субтитров: softsub (SRT)
Главы: есть

MediaInfo | x264

x264

--[Information] [11.08.2013 6:18:48] raw [info]: 1280x720p 1:1 @ 24000/1001 fps (cfr)
--[Information] [11.08.2013 6:18:48] x264 [info]: using SAR=1/1
--[Information] [11.08.2013 6:18:48] x264 [info]: using cpu capabilities: MMX2 SSE2Fast SSEMisalign LZCNT
--[Information] [11.08.2013 6:18:48] x264 [info]: profile High, level 4.1
--[Information] [11.08.2013 6:18:48] x264 [info]: cabac=1 ref=8 deblock=1:-3:-3 analyse=0x3:0x113 me=umh subme=11 psy=1 fade_compensate=0.00 psy_rd=1.00:0.00 mixed_ref=1 me_range=32 chroma_me=1 trellis=2 8x8dct=1 cqm=0 deadzone=21,11 fast_pskip=0 chroma_qp_offset=-2 threads=6 lookahead_threads=1 sliced_threads=0 nr=0 decimate=0 interlaced=0 bluray_compat=0 constrained_intra=0 bframes=12 b_pyramid=2 b_adapt=2 b_bias=0 direct=3 weightb=1 open_gop=0 weightp=2 keyint=240 keyint_min=23 scenecut=40 intra_refresh=0 rc_lookahead=0 rc=2pass mbtree=0 bitrate=8500 ratetol=1.0 qcomp=0.60 qpmin=0 qpmax=69 qpstep=4 cplxblur=20.0 qblur=0.5 vbv_maxrate=50000 vbv_bufsize=62500 nal_hrd=none ip_ratio=1.40 pb_ratio=1.30 aq=1:1.00
--[Information] [11.08.2013 6:18:48] frames fps kb/s elapsed remain size est.size
--[Information] [11.08.2013 23:47:49] x264 [info]: frame I:879 Avg QP:13.45 size:142312
--[Information] [11.08.2013 23:47:50] x264 [info]: frame P:26186 Avg QP:15.74 size: 72459
--[Information] [11.08.2013 23:47:50] x264 [info]: frame B:127716 Avg QP:17.86 size: 37852
--[Information] [11.08.2013 23:47:50] x264 [info]: consecutive B-frames: 0.8% 1.0% 2.1% 10.9% 18.8% 23.8% 10.0% 11.3% 10.9% 7.8% 0.6% 1.1% 1.0%
--[Information] [11.08.2013 23:47:50] x264 [info]: mb I I16..4: 4.7% 88.9% 6.4%
--[Information] [11.08.2013 23:47:50] x264 [info]: mb P I16..4: 0.3% 29.4% 0.7% P16..4: 20.3% 30.8% 13.5% 0.0% 0.0% skip: 4.9%
--[Information] [11.08.2013 23:47:50] x264 [info]: mb B I16..4: 0.0% 4.2% 0.1% B16..8: 37.8% 31.0% 7.8% direct: 7.9% skip:11.3% L0:47.4% L1:43.1% BI: 9.5%
--[Information] [11.08.2013 23:47:50] x264 [info]: 8x8 transform intra:96.4% inter:58.5%
--[Information] [11.08.2013 23:47:50] x264 [info]: direct mvs spatial:98.4% temporal:1.6%
--[Information] [11.08.2013 23:47:50] x264 [info]: coded y,uvDC,uvAC intra: 97.8% 90.1% 75.1% inter: 54.0% 38.4% 12.6%
--[Information] [11.08.2013 23:47:50] x264 [info]: i16 v,h,dc,p: 46% 18% 8% 28%
--[Information] [11.08.2013 23:47:50] x264 [info]: i8 v,h,dc,ddl,ddr,vr,hd,vl,hu: 7% 6% 10% 11% 15% 13% 13% 12% 13%
--[Information] [11.08.2013 23:47:50] x264 [info]: i4 v,h,dc,ddl,ddr,vr,hd,vl,hu: 10% 8% 11% 9% 15% 14% 12% 11% 11%
--[Information] [11.08.2013 23:47:50] x264 [info]: i8c dc,h,v,p: 51% 18% 14% 16%
--[Information] [11.08.2013 23:47:50] x264 [info]: Weighted P-Frames: Y:4.3% UV:2.9%
--[Information] [11.08.2013 23:47:50] x264 [info]: ref P L0: 44.2% 3.2% 18.9% 10.8% 8.2% 6.4% 5.0% 2.9% 0.2% 0.0%
--[Information] [11.08.2013 23:47:50] x264 [info]: ref B L0: 67.8% 14.9% 8.0% 4.5% 3.0% 1.4% 0.4%
--[Information] [11.08.2013 23:47:50] x264 [info]: ref B L1: 89.7% 10.3%
--[Information] [11.08.2013 23:47:50] x264 [info]: kb/s:8497.09
General
Complete name : E:\...\The.Human.Contract.2008.720p.BluRay.x264.Rus.Eng-E76.mkv
Format : Matroska
Format version : Version 4 / Version 2
File size : 7.67 GiB
Duration : 1h 47mn
Overall bit rate : 10.2 Mbps
Movie name : The.Human.Contract.2008.720p.BluRay.x264.Rus.Eng-E76
Encoded date : UTC 2013-09-13 02:16:47
Writing application : mkvmerge v6.2.0 ('Promised Land') built on Apr 28 2013 12:22:01
Writing library : libebml v1.3.0 + libmatroska v1.4.0
Video
ID : 1
Format : AVC
Format/Info : Advanced Video Codec
Format profile : High@L4.1
Format settings, CABAC : Yes
Format settings, ReFrames : 8 frames
Codec ID : V_MPEG4/ISO/AVC
Duration : 1h 47mn
Bit rate : 8 500 Kbps
Width : 1 280 pixels
Height : 720 pixels
Display aspect ratio : 16:9
Frame rate mode : Constant
Frame rate : 23.976 fps
Color space : YUV
Chroma subsampling : 4:2:0
Bit depth : 8 bits
Scan type : Progressive
Bits/(Pixel*Frame) : 0.385
Stream size : 6.23 GiB (81%)
Title : E76
Writing library : x264 core 135 r2345kMod f0c1c53
Encoding settings : cabac=1 / ref=8 / deblock=1:-3:-3 / analyse=0x3:0x113 / me=umh / subme=11 / psy=1 / fade_compensate=0.00 / psy_rd=1.00:0.00 / mixed_ref=1 / me_range=32 / chroma_me=1 / trellis=2 / 8x8dct=1 / cqm=0 / deadzone=21,11 / fast_pskip=0 / chroma_qp_offset=-2 / threads=6 / lookahead_threads=1 / sliced_threads=0 / nr=0 / decimate=0 / interlaced=0 / bluray_compat=0 / constrained_intra=0 / bframes=12 / b_pyramid=2 / b_adapt=2 / b_bias=0 / direct=3 / weightb=1 / open_gop=0 / weightp=2 / keyint=240 / keyint_min=23 / scenecut=40 / intra_refresh=0 / rc_lookahead=0 / rc=2pass / mbtree=0 / bitrate=8500 / ratetol=1.0 / qcomp=0.60 / qpmin=0 / qpmax=69 / qpstep=4 / cplxblur=20.0 / qblur=0.5 / vbv_maxrate=50000 / vbv_bufsize=62500 / nal_hrd=none / ip_ratio=1.40 / pb_ratio=1.30 / aq=1:1.00
Language : English
Default : No
Forced : No
Matrix coefficients : BT.709
Audio #1
ID : 2
Format : AC-3
Format/Info : Audio Coding 3
Format profile : Dolby Digital
Mode extension : CM (complete main)
Format settings, Endianness : Big
Codec ID : A_AC3
Duration : 1h 47mn
Bit rate mode : Constant
Bit rate : 192 Kbps
Channel(s) : 2 channels
Channel positions : Front: L R
Sampling rate : 48.0 KHz
Bit depth : 16 bits
Compression mode : Lossy
Stream size : 148 MiB (2%)
Title : DVO NTV
Language : Russian
Default : Yes
Forced : No
Audio #2
ID : 3
Format : DTS
Format/Info : Digital Theater Systems
Codec ID : A_DTS
Duration : 1h 47mn
Bit rate mode : Constant
Bit rate : 1 510 Kbps
Channel(s) : 6 channels
Channel positions : Front: L C R, Side: L R, LFE
Sampling rate : 48.0 KHz
Bit depth : 16 bits
Compression mode : Lossy
Stream size : 1.13 GiB (15%)
Title : Original
Language : English
Default : No
Forced : No
Text #1
ID : 4
Format : UTF-8
Codec ID : S_TEXT/UTF8
Codec ID/Info : UTF-8 Plain Text
Language : Russian
Default : No
Forced : No
Text #2
ID : 5
Format : UTF-8
Codec ID : S_TEXT/UTF8
Codec ID/Info : UTF-8 Plain Text
Language : English
Default : No
Forced : No
Menu
00:00:00.000 : en:Chapter 01
00:07:38.958 : en:Chapter 02
...
01:47:35.448 : en:Chapter 17

Скриншоты



Скачать

Скачать торрент!

Как скачивать? · Что такое торрент? · Рейтинг и ограничения

Сайт не распространяет и не хранит электронные версии произведений, а лишь предоставляет доступ к создаваемому пользователями каталогу ссылок на торрент-файлы, которые содержат только списки хеш-сумм

[Профиль] [ЛС]
Показать сообщения:    
Ответить на тему

Текущее время: Сегодня 20:15

Часовой пояс: GMT + 4



Вы не можете начинать темы
Вы не можете отвечать на сообщения
Вы не можете редактировать свои сообщения
Вы не можете удалять свои сообщения
Вы не можете голосовать в опросах
Вы не можете прикреплять файлы к сообщениям
Вы не можете скачивать файлы