Воображариум / Imaginaerum (Стобе Харью / Stobe Harju) [2012, Канада, Финляндия, фэнтези, приключения, мюзикл, драма, BDRip 1080p] Dub (R5) + Original (Eng) + Sub (Rus, Eng)

Ответить на тему
 
Автор Сообщение

user ®

Стаж: 7 лет 7 месяцев

Сообщений: 20008

Пост Пост: #1 от 17-Сен-2013 17:20

[Цитировать]

Воображариум / Imaginaerum
Страна: Канада, Финляндия
Студия: Caramel Film, Scene Nation, Solar Films
Жанр: фэнтези, приключения, мюзикл, драма
Год выпуска: 2012
Продолжительность: 01:25:54
Перевод: профессиональный (дублированный) (R5)
Оригинальная аудиодорожка: английская
Cубтитры: русские, английские
Режиссер: Стобе Харью / Stobe Harju
В ролях: Марианн Фарли, Куинн Лорд, Фрэнсис З. МакКарти, Илка Вилли, Джоэнна Нойес, Кеянна Филдинг, Стефани Демерс, Рон Лиа, Хелен Робитейлл, Туомас Холопайнен, Анетт Ользон, Юкка Невалайнен, Эмппу Вуоринен, Марко Хиетала, Аларей Элсип, Шон Байчу, Гленда Браганза, Филипп Бедар
Описание: Кто из нас в детстве не мечтал попасть в волшебную страну? В страну, где все возможно. Где исполняются самые несбыточные мечты, встречаются необыкновенные существа и происходит самое настоящее Волшебство. Теперь ваши мечты могут осуществиться! Не важно сколько вам лет. Не важно верите ли вы в говорящих снеговиков и в то, что люди могут летать. Просто приоткройте эту дверь и перед вами окажется Воображариум, где все возможно.

Релиз: fanatus
Качество видео: BDRip 1080p
Исходник: Blu-ray Disc 1080p [IMGNRM_BLUEBIRD]
Контейнер: MKV
Видео: MPEG-4 AVC, 10.0 Mbps , 1920x816 (2.35:1), 23.976 fps, 0.266 bit/pixel
Аудио 1: русский (AC3, 6 ch, 48 kHz, 448 kbps)
Аудио 2: английский (DTS, 6 ch, 48 kHz, 1510 kbps)
Формат субтитров: softsub (SRT)
Главы: есть

MediaInfo

General
Unique ID : 229791407121799925964460045804317498495 (0xACE03716F220A0FEBA4554C55E70DC7F)
Complete name : E:\Imaginaerum.2012.x264.BDRip.1080p.fanatus.mkv
Format : Matroska
Format version : Version 2
File size : 7.17 GiB
Duration : 1h 25mn
Overall bit rate : 12.0 Mbps
Movie name : Imaginaerum (2012) - fanatus
Encoded date : UTC 2013-09-16 00:05:38
Writing application : mkvmerge v3.4.0 ('Rapunzel') сборка от May 15 2010 09:38:20
Writing library : libebml v0.8.0 + libmatroska v0.9.0
Video
ID : 1
Format : AVC
Format/Info : Advanced Video Codec
Format profile : High@L4.1
Format settings, CABAC : Yes
Format settings, ReFrames : 5 frames
Codec ID : V_MPEG4/ISO/AVC
Duration : 1h 25mn
Bit rate : 10 000 Kbps
Width : 1 920 pixels
Height : 816 pixels
Display aspect ratio : 2.35:1
Frame rate : 23.976 fps
Color space : YUV
Chroma subsampling : 4:2:0
Bit depth : 8 bits
Scan type : Progressive
Bits/(Pixel*Frame) : 0.266
Stream size : 5.85 GiB (82%)
Title : Imaginaerum (2012)
Writing library : x264 core 138 r2358kMod 9e941d1
Encoding settings : cabac=1 / ref=5 / deblock=1:-3:-2 / analyse=0x3:0x113 / me=tesa / subme=11 / psy=1 / fade_compensate=0.00 / psy_rd=1.00:0.05 / mixed_ref=1 / me_range=32 / chroma_me=1 / trellis=2 / 8x8dct=1 / cqm=0 / deadzone=21,11 / fast_pskip=0 / chroma_qp_offset=-3 / threads=16 / lookahead_threads=4 / sliced_threads=0 / nr=0 / decimate=0 / interlaced=0 / bluray_compat=0 / constrained_intra=0 / bframes=10 / b_pyramid=2 / b_adapt=2 / b_bias=0 / direct=3 / weightb=1 / open_gop=0 / weightp=2 / keyint=240 / keyint_min=23 / scenecut=40 / intra_refresh=0 / rc_lookahead=240 / rc=2pass / mbtree=0 / bitrate=10000 / ratetol=1.0 / qcomp=0.75 / qpmin=0 / qpmax=69 / qpstep=4 / cplxblur=20.0 / qblur=0.5 / vbv_maxrate=50000 / vbv_bufsize=62500 / nal_hrd=none / ip_ratio=1.30 / pb_ratio=1.20 / aq=3:0.80
Language : English
Default : Yes
Forced : No
Audio #1
ID : 2
Format : AC-3
Format/Info : Audio Coding 3
Mode extension : CM (complete main)
Format settings, Endianness : Big
Codec ID : A_AC3
Duration : 1h 25mn
Bit rate mode : Constant
Bit rate : 448 Kbps
Channel(s) : 6 channels
Channel positions : Front: L C R, Side: L R, LFE
Sampling rate : 48.0 KHz
Bit depth : 16 bits
Compression mode : Lossy
Stream size : 275 MiB (4%)
Title : Dub
Language : Russian
Default : Yes
Forced : No
Audio #2
ID : 3
Format : DTS
Format/Info : Digital Theater Systems
Codec ID : A_DTS
Duration : 1h 25mn
Bit rate mode : Constant
Bit rate : 1 510 Kbps
Channel(s) : 6 channels
Channel positions : Front: L C R, Side: L R, LFE
Sampling rate : 48.0 KHz
Bit depth : 24 bits
Compression mode : Lossy
Stream size : 928 MiB (13%)
Title : Original
Language : English
Default : No
Forced : No
Text #1
ID : 4
Format : UTF-8
Codec ID : S_TEXT/UTF8
Codec ID/Info : UTF-8 Plain Text
Title : Midnight & Dagnarus
Language : Russian
Default : No
Forced : No
Text #2
ID : 5
Format : UTF-8
Codec ID : S_TEXT/UTF8
Codec ID/Info : UTF-8 Plain Text
Title : jerichOne & miktlana
Language : Russian
Default : No
Forced : No
Text #3
ID : 6
Format : UTF-8
Codec ID : S_TEXT/UTF8
Codec ID/Info : UTF-8 Plain Text
Language : English
Default : No
Forced : No
Menu
00:00:00.000 : en:Chapter 01
00:00:48.089 : en:Chapter 02
00:04:13.836 : en:Chapter 03
00:09:38.619 : en:Chapter 04
00:14:08.389 : en:Chapter 05
00:18:31.735 : en:Chapter 06
00:25:34.908 : en:Chapter 07
00:28:36.840 : en:Chapter 08
00:32:32.283 : en:Chapter 09
00:39:16.062 : en:Chapter 10
00:45:10.040 : en:Chapter 11
00:50:43.457 : en:Chapter 12
00:57:25.233 : en:Chapter 13
01:04:48.092 : en:Chapter 14
01:12:06.739 : en:Chapter 15
01:19:05.574 : en:Chapter 16

x264 [info]

x264 [info]: 1920x816p 1:1 @ 24000/1001 fps (cfr)
x264 [info]: using SAR=1/1
x264 [info]: using cpu capabilities: MMX2 SSE2Fast LZCNT
x264 [info]: profile High, level 4.1
x264 [info]: cabac=1 ref=5 deblock=1:-3:-2 analyse=0x3:0x113 me=tesa subme=11 psy=1 fade_compensate=0.00 psy_rd=1.00:0.05 mixed_ref=1 me_range=32 chroma_me=1 trellis=2 8x8dct=1 cqm=0 deadzone=21,11 fast_pskip=0 chroma_qp_offset=-3 threads=16 lookahead_threads=4 sliced_threads=0 nr=0 decimate=0 interlaced=0 bluray_compat=0 constrained_intra=0 bframes=10 b_pyramid=2 b_adapt=2 b_bias=0 direct=3 weightb=1 open_gop=0 weightp=2 keyint=240 keyint_min=23 scenecut=40 intra_refresh=0 rc_lookahead=240 rc=2pass mbtree=0 bitrate=10000 ratetol=1.0 qcomp=0.75 qpmin=0 qpmax=69 qpstep=4 cplxblur=20.0 qblur=0.5 vbv_maxrate=50000 vbv_bufsize=62500 nal_hrd=none ip_ratio=1.30 pb_ratio=1.20 aq=3:0.80
x264 [info]: frame I:793 Avg QP:11.32 size:186560
x264 [info]: frame P:29344 Avg QP:13.00 size: 85293
x264 [info]: frame B:93440 Avg QP:14.12 size: 40523
x264 [info]: consecutive B-frames: 4.0% 4.7% 12.4% 8.3% 14.5% 46.6% 4.7% 0.8% 1.2% 0.9% 1.8%
x264 [info]: mb I I16..4: 14.6% 72.9% 12.5%
x264 [info]: mb P I16..4: 3.8% 25.3% 1.5% P16..4: 23.7% 26.4% 9.5% 0.0% 0.0% skip: 9.7%
x264 [info]: mb B I16..4: 0.8% 4.3% 0.2% B16..8: 30.6% 21.3% 4.6% direct:11.2% skip:27.1% L0:46.3% L1:42.1% BI:11.5%
x264 [info]: 8x8 transform intra:81.9% inter:49.8%
x264 [info]: direct mvs spatial:97.9% temporal:2.1%
x264 [info]: coded y,uvDC,uvAC intra: 84.8% 93.5% 89.0% inter: 29.7% 44.0% 28.7%
x264 [info]: i16 v,h,dc,p: 31% 11% 8% 49%
x264 [info]: i8 v,h,dc,ddl,ddr,vr,hd,vl,hu: 9% 7% 18% 10% 11% 11% 10% 11% 13%
x264 [info]: i4 v,h,dc,ddl,ddr,vr,hd,vl,hu: 10% 7% 21% 9% 12% 11% 10% 9% 12%
x264 [info]: i8c dc,h,v,p: 64% 13% 12% 11%
x264 [info]: Weighted P-Frames: Y:4.5% UV:2.5%
x264 [info]: ref P L0: 47.9% 5.1% 26.3% 9.8% 9.4% 1.5% 0.0%
x264 [info]: ref B L0: 70.1% 21.3% 6.8% 1.8%
x264 [info]: ref B L1: 90.8% 9.2%
x264 [info]: kb/s:9991.54
x264 [info]: encoded 123577 frames, 2.05 fps, 9991.54 kb/s

Скриншот c названием фильма

Скриншоты

Source vs Rip




Скачать

Скачать торрент!

Как скачивать? · Что такое торрент? · Рейтинг и ограничения

Сайт не распространяет и не хранит электронные версии произведений, а лишь предоставляет доступ к создаваемому пользователями каталогу ссылок на торрент-файлы, которые содержат только списки хеш-сумм

[Профиль] [ЛС]
Показать сообщения:    
Ответить на тему

Текущее время: Сегодня 20:00

Часовой пояс: GMT + 4



Вы не можете начинать темы
Вы не можете отвечать на сообщения
Вы не можете редактировать свои сообщения
Вы не можете удалять свои сообщения
Вы не можете голосовать в опросах
Вы не можете прикреплять файлы к сообщениям
Вы не можете скачивать файлы