Экзамен для двоих / Admission (Пол Вайц / Paul Weitz) [2013, США, мелодрама, комедия, BDRip 720p] Dub + Original (Eng) + Sub (Rus, Eng)

Ответить на тему
 
Автор Сообщение

user ®

Стаж: 7 лет 7 месяцев

Сообщений: 20008

Пост Пост: #1 от 17-Сен-2013 11:00

[Цитировать]

Экзамен для двоих / Admission
Страна: США
Студия: Depth of Field
Жанр: мелодрама, комедия
Год выпуска: 2013
Продолжительность: 01:47:07
Перевод: профессиональный (дублированный) [Blu-ray Rus]
Оригинальная аудиодорожка: английская
Cубтитры: русские, английские
Режиссер: Пол Вайц / Paul Weitz
В ролях: Тина Фей, Пол Радд, Майкл Шин, Уоллес Шоун, Лили Томлин, Энн Харада, Бен Левин, Дэн Леви, Мэгги Кинэн-Болджер, Глория Рубен
Описание: Полли Нельсон работает в приемной комиссии престижного университета, она — вершитель судеб многих подростков. Но как устроить собственную судьбу? Появление идеального мужчины вовсе не обещает мир и покой, наоборот, приносит в её жизнь множество дурацких ситуаций и не всегда приятных сюрпризов. А тут ещё объявляется сын, которого Полли считала потерянным, и он, увы, далеко не отличник. Что спасать в первую очередь, карьеру или личную жизнь?

Релиз: fanatus
Качество видео: BDRip 720p
Исходник: BDRemux 1080p [US transfer]
Контейнер: MKV
Видео: MPEG-4 AVC, 8000 kbps , 1280x534 (2.40:1), 23.976 fps, 0.488 bit/pixel
Аудио 1: русский (AC3, 6 ch, 48 kHz, 640 kbps)
Аудио 2: английский (AC3, 6 ch, 48 kHz, 640 kbps)
Формат субтитров: softsub (SRT)
Главы: есть

MediaInfo

General
Unique ID : 253479422649776239727616096684607802163 (0xBEB25C6CE705B516A3B4E9FA85B40B33)
Complete name : E:\Admission.2013.x264.BDRip.720p.fanatus.mkv
Format : Matroska
Format version : Version 2
File size : 6.94 GiB
Duration : 1h 47mn
Overall bit rate : 9 278 Kbps
Movie name : Admission (2013) - fanatus
Encoded date : UTC 2013-09-14 05:29:54
Writing application : mkvmerge v3.4.0 ('Rapunzel') сборка от May 15 2010 09:38:20
Writing library : libebml v0.8.0 + libmatroska v0.9.0
Video
ID : 1
Format : AVC
Format/Info : Advanced Video Codec
Format profile : High@L4.1
Format settings, CABAC : Yes
Format settings, ReFrames : 10 frames
Codec ID : V_MPEG4/ISO/AVC
Duration : 1h 47mn
Bit rate : 8 000 Kbps
Width : 1 280 pixels
Height : 534 pixels
Display aspect ratio : 2.40:1
Frame rate : 23.976 fps
Color space : YUV
Chroma subsampling : 4:2:0
Bit depth : 8 bits
Scan type : Progressive
Bits/(Pixel*Frame) : 0.488
Stream size : 5.85 GiB (84%)
Title : Admission (2013)
Writing library : x264 core 138 r2358 9e941d1
Encoding settings : cabac=1 / ref=10 / deblock=1:-3:-3 / analyse=0x3:0x113 / me=tesa / subme=11 / psy=1 / psy_rd=1.00:0.10 / mixed_ref=1 / me_range=32 / chroma_me=1 / trellis=2 / 8x8dct=1 / cqm=0 / deadzone=21,11 / fast_pskip=0 / chroma_qp_offset=-3 / threads=16 / lookahead_threads=4 / sliced_threads=0 / nr=0 / decimate=0 / interlaced=0 / bluray_compat=0 / constrained_intra=0 / bframes=10 / b_pyramid=2 / b_adapt=2 / b_bias=0 / direct=3 / weightb=1 / open_gop=0 / weightp=2 / keyint=240 / keyint_min=23 / scenecut=40 / intra_refresh=0 / rc_lookahead=240 / rc=2pass / mbtree=0 / bitrate=8000 / ratetol=1.0 / qcomp=0.70 / qpmin=0 / qpmax=69 / qpstep=4 / cplxblur=20.0 / qblur=0.5 / vbv_maxrate=50000 / vbv_bufsize=62500 / nal_hrd=none / ip_ratio=1.40 / pb_ratio=1.30 / aq=1:0.80
Language : English
Default : Yes
Forced : No
Audio #1
ID : 2
Format : AC-3
Format/Info : Audio Coding 3
Mode extension : CM (complete main)
Format settings, Endianness : Big
Codec ID : A_AC3
Duration : 1h 47mn
Bit rate mode : Constant
Bit rate : 640 Kbps
Channel(s) : 6 channels
Channel positions : Front: L C R, Side: L R, LFE
Sampling rate : 48.0 KHz
Bit depth : 16 bits
Compression mode : Lossy
Stream size : 490 MiB (7%)
Title : Dub
Language : Russian
Default : Yes
Forced : No
Audio #2
ID : 3
Format : AC-3
Format/Info : Audio Coding 3
Mode extension : CM (complete main)
Format settings, Endianness : Big
Codec ID : A_AC3
Duration : 1h 47mn
Bit rate mode : Constant
Bit rate : 640 Kbps
Channel(s) : 6 channels
Channel positions : Front: L C R, Side: L R, LFE
Sampling rate : 48.0 KHz
Bit depth : 16 bits
Compression mode : Lossy
Stream size : 490 MiB (7%)
Title : Original
Language : English
Default : No
Forced : No
Text #1
ID : 4
Format : UTF-8
Codec ID : S_TEXT/UTF8
Codec ID/Info : UTF-8 Plain Text
Language : Russian
Default : No
Forced : No
Text #2
ID : 5
Format : UTF-8
Codec ID : S_TEXT/UTF8
Codec ID/Info : UTF-8 Plain Text
Language : English
Default : No
Forced : No
Menu
00:00:00.000 : en:00:00:00.000
00:06:25.635 : en:00:06:25.635
00:10:23.164 : en:00:10:23.164
00:16:40.124 : en:00:16:40.124
00:20:07.665 : en:00:20:07.665
00:25:02.251 : en:00:25:02.251
00:29:10.958 : en:00:29:10.958
00:35:35.425 : en:00:35:35.425
00:40:15.622 : en:00:40:15.622
00:46:49.724 : en:00:46:49.724
00:50:58.514 : en:00:50:58.514
00:55:45.634 : en:00:55:45.634
00:58:55.824 : en:00:58:55.824
01:05:51.322 : en:01:05:51.322
01:09:30.625 : en:01:09:30.625
01:13:32.700 : en:01:13:32.700
01:19:58.544 : en:01:19:58.544
01:27:01.091 : en:01:27:01.091
01:35:40.985 : en:01:35:40.985
01:40:42.328 : en:01:40:42.328

x264 [info]

---[Information] [12.09.2013 21:15:24] raw [info]: 1280x534p 1:1 @ 24000/1001 fps (cfr)
---[Information] [12.09.2013 21:15:24] x264 [info]: using SAR=1/1
---[Information] [12.09.2013 21:15:24] x264 [info]: using cpu capabilities: MMX2 SSE2Fast SSSE3 SSE4.2 AVX
---[Information] [12.09.2013 21:15:24] x264 [info]: profile High, level 4.1
---[Information] [13.09.2013 15:10:56] x264 [info]: frame I:2104 Avg QP:12.88 size:191477
---[Information] [13.09.2013 15:10:56] x264 [info]: frame P:30009 Avg QP:14.31 size: 70906
---[Information] [13.09.2013 15:10:56] x264 [info]: frame B:121990 Avg QP:16.38 size: 31911
---[Information] [13.09.2013 15:10:56] x264 [info]: consecutive B-frames: 2.2% 2.9% 4.9% 7.0% 13.5% 57.8% 6.7% 1.1% 1.1% 0.9% 1.9%
---[Information] [13.09.2013 15:10:56] x264 [info]: mb I I16..4: 33.3% 38.4% 28.4%
---[Information] [13.09.2013 15:10:56] x264 [info]: mb P I16..4: 4.1% 11.7% 2.5% P16..4: 20.7% 30.1% 23.0% 0.0% 0.0% skip: 7.9%
---[Information] [13.09.2013 15:10:56] x264 [info]: mb B I16..4: 0.2% 4.1% 0.2% B16..8: 28.9% 24.1% 9.3% direct: 9.8% skip:23.4% L0:45.5% L1:37.5% BI:17.1%
---[Information] [13.09.2013 15:10:56] x264 [info]: 8x8 transform intra:71.2% inter:44.4%
---[Information] [13.09.2013 15:10:56] x264 [info]: direct mvs spatial:97.2% temporal:2.8%
---[Information] [13.09.2013 15:10:56] x264 [info]: coded y,uvDC,uvAC intra: 98.0% 98.4% 96.6% inter: 45.9% 44.5% 30.3%
---[Information] [13.09.2013 15:10:56] x264 [info]: i16 v,h,dc,p: 5% 1% 44% 49%
---[Information] [13.09.2013 15:10:56] x264 [info]: i8 v,h,dc,ddl,ddr,vr,hd,vl,hu: 13% 8% 22% 8% 10% 10% 9% 9% 11%
---[Information] [13.09.2013 15:10:56] x264 [info]: i4 v,h,dc,ddl,ddr,vr,hd,vl,hu: 19% 7% 9% 9% 12% 12% 11% 10% 11%
---[Information] [13.09.2013 15:10:56] x264 [info]: i8c dc,h,v,p: 66% 9% 10% 15%
---[Information] [13.09.2013 15:10:56] x264 [info]: Weighted P-Frames: Y:1.6% UV:0.6%
---[Information] [13.09.2013 15:10:56] x264 [info]: ref P L0: 38.4% 8.4% 22.8% 6.7% 7.9% 4.4% 5.1% 2.0% 2.6% 1.6% 0.1% 0.0%
---[Information] [13.09.2013 15:10:56] x264 [info]: ref B L0: 65.6% 15.0% 6.9% 4.2% 2.8% 2.6% 1.8% 0.8% 0.3%
---[Information] [13.09.2013 15:10:56] x264 [info]: ref B L1: 91.4% 8.6%
---[Information] [13.09.2013 15:10:56] x264 [info]: kb/s:7995.23
---[Information] [13.09.2013 15:10:56] encoded 154103 frames, 2.39 fps, 7995.23 kb/s

Скриншот c названием фильма

Скриншоты

Source vs Rip




Скачать

Скачать торрент!

Как скачивать? · Что такое торрент? · Рейтинг и ограничения

Сайт не распространяет и не хранит электронные версии произведений, а лишь предоставляет доступ к создаваемому пользователями каталогу ссылок на торрент-файлы, которые содержат только списки хеш-сумм

[Профиль] [ЛС]
Показать сообщения:    
Ответить на тему

Текущее время: Сегодня 00:41

Часовой пояс: GMT + 4



Вы не можете начинать темы
Вы не можете отвечать на сообщения
Вы не можете редактировать свои сообщения
Вы не можете удалять свои сообщения
Вы не можете голосовать в опросах
Вы не можете прикреплять файлы к сообщениям
Вы не можете скачивать файлы