Семейка Крудс / The Croods (Кирк де Микко / Kirk De Micco, Крис Сандерс / Chris Sanders) [2013, мультфильм, фэнтези, комедия, BDRip] Dub

Ответить на тему
 
Автор Сообщение

user ®

Стаж: 13 лет

Сообщений: 15041

Пост Пост: #1 от 17-Сен-2013 01:30

[Цитировать]

Семейка Крудс / The Croods«Если они не эволюционируют, то станут историей»- Страна: США
Жанр: мультфильм, фэнтези, комедия, приключения, семейный
Год выпуска: 2013
Продолжительность: 01:38:37
Перевод: Профессиональный (полное дублирование)
Субтитры: Нет-Режиссер: Кирк де Микко / Kirk De Micco, Крис Сандерс / Chris Sanders-Роли озвучивали: Николас Кейдж (Grug, озвучка,), Эмма Стоун (Eep, озвучка), Райан Рейнольдс (Guy, озвучка), Кэтрин Кинер (Ugga, озвучка), Клорис Личмен (Gran, озвучка), Кларк Дьюк (Thunk, озвучка), Крис Сандерс (Belt, озвучка)-Роли дублировали: Дмитрий Назаров (Grug), Нюша Шурочкина (Eep), Егор Дружинин (Guy), Александра Назарова (Gran), Руслан Мещанов (Thunk)-Описание: Землетрясение уничтожило дом доисторической семьи, и теперь Крудсам придётся искать другое пристанище. А вокруг новый и опасный мир! Им на помощь приходит молодой кочевник Малой, передовые взгляды которого наталкиваются на консервативность главы семьи Груга. Но только вместе они смогут выжить и достичь своей цели...-Рейтинг:

MPAA: - Рекомендуется присутствие родителей-Бюджет: $135 000 000
Сборы в США: $187 153 646
Сборы в России: $28 442 097
Сборы в мире: $583 414 265
Мировая премьера: 15 февраля 2013
Релиз на DVD: 3 октября 2013, «Двадцатый Век Фокс СНГ»
Релиз на Blu-ray: 3 октября 2013, «Двадцатый Век Фокс СНГ»-Релиз: -Семпл-Качество: BDRip [THE_CROODS_2013_REMUX_HDCLUB]
Формат: AVI
Видео: 640x272 (2.35:1), 23.976 fps, XviD build 65 ~919 kbps avg, 0.22 bit/pixel
Аудио: 48 kHz, MPEG Layer 3, 2 ch, ~128.00 kbps avg
Субтитры: Отсутствуют-

MI

Format : AVIFormat/Info : Audio Video InterleaveFile size : 746 MiBDuration : 1h 38mnOverall bit rate : 1 057 KbpsWriting application : VirtualDubMod 1.5.10.3 | www.virtualdub-fr.org || (build 2550/release)Writing library : VirtualDubMod build 2550/release
VideoID : 0Format : MPEG-4 VisualFormat profile : Advanced Simple@L5Format settings, BVOP : 2Format settings, QPel : NoFormat settings, GMC : No warppointsFormat settings, Matrix : CustomCodec ID : XVIDCodec ID/Hint : XviDDuration : 1h 38mnBit rate : 920 KbpsWidth : 640 pixelsHeight : 272 pixelsDisplay aspect ratio : 2.35:1Frame rate : 23.976 fpsColor space : YUVChroma subsampling : 4:2:0Bit depth : 8 bitsScan type : ProgressiveCompression mode : LossyBits/(Pixel*Frame) : 0.220Stream size : 649 MiB (87%)Writing library : XviD 65
AudioID : 1Format : MPEG AudioFormat version : Version 1Format profile : Layer 3Codec ID : 55Codec ID/Hint : MP3Duration : 1h 38mnBit rate mode : ConstantBit rate : 128 KbpsChannel(s) : 2 channelsSampling rate : 48.0 KHzCompression mode : LossyStream size : 90.3 MiB (12%)Alignment : Aligned on interleavesInterleave, duration : 42 ms (1.00 video frame)Interleave, preload duration : 504 msWriting library : LAME3.99rEncoding settings : -m s -V 4 -q 2 -lowpass 17 -b 128

Знаете ли Вы, что...

  • Первый фильм студии DreamWorks Animation, дистрибьютором которого стала компания 20th Century Fox.
Скачать

Скачать торрент! Семейка Крудс / The Croods (Кирк де Микко / Kirk De Micco, Крис Сандерс / Chris Sanders) [2013, мультфильм, фэнтези, комедия, BDRip] Dub

Как скачивать? · Что такое торрент? · Рейтинг и ограничения

Сайт не распространяет и не хранит электронные версии произведений, а лишь предоставляет доступ к создаваемому пользователями каталогу ссылок на торрент-файлы, которые содержат только списки хеш-сумм

[Профиль] [ЛС]
Показать сообщения:    
Ответить на тему

Текущее время: Сегодня 18:09

Часовой пояс: GMT + 4



Вы не можете начинать темы
Вы не можете отвечать на сообщения
Вы не можете редактировать свои сообщения
Вы не можете удалять свои сообщения
Вы не можете голосовать в опросах
Вы не можете прикреплять файлы к сообщениям
Вы не можете скачивать файлы