Соблазнитель 2 / Kokowaah 2 (Тиль Швайгер / Til Schweiger) [2013, Германия, Комедия, Семейный, BDRip 1080p] Dub + DVO (HamsterStudio) + Sub Eng + Original Ger

Ответить на тему
 
Автор Сообщение

user ®

Стаж: 7 лет 7 месяцев

Сообщений: 20008

Пост Пост: #1 от 17-Сен-2013 01:30

[Цитировать]

Соблазнитель 2 / Kokowaah 2
Страна: Германия
Жанр: Комедия, Семейный
Год выпуска: 2013
Продолжительность: 02:02:27
Перевод: Профессиональный (дублированный)
Перевод 2: Профессиональный (двухголосый закадровый) HamsterStudio
Cубтитры: английские
Оригинальная аудиодорожка: немецкий
Режиссер: Тиль Швайгер / Til Schweiger
В ролях: Тиль Швайгер, Эмма Швайгер, Самуэль Финци, Жасмин Герат, Маурицио Магно, Маттиас Швайгхефер, Михаэль Островский, Яна Рейнерманн, Гедеон Буркхард, Юлия Йенч ...
Описание: Генри — в прошлом известный ловелас. Однако пришло время забыть о прежних привычках и стать прилежным семьянином. Дети, бывший муж Катарины, Тристан со своей привлекательной подружкой, молодая няня, истеричный директор студии — все они превращают жизнь Генри в череду смешных, порой неловких ситуаций. Как найти время на всех и в то же время побороть инстинкты, ведь вокруг столько соблазнов…
Релиз:
Сэмпл: http://multi-up.com/902978
Тип релиза: BDRip 1080p
Контейнер: MKV
Видео: 1920 x 816 (2.353) at 23.976 fps : 0.190 Bits/Pixel~ 7139 Кбит/сек
Аудио: AC3 448 Кбит/сек (2ch), 48,0 КГц, 16 бит [Русский, Дубляж]
Аудио 2: DTS 1509 Кбит/сек (6ch), 48,0 КГц, 24 бит [Русский, DVO HamsterStudio]
Аудио 3: DTS 1509 Кбит/сек (6ch), 48,0 КГц, 24 бит [Немецкий]

MediaInfo

Уникальный идентификатор : 233701165887065685276767294682880557091 (0xAFD135145DB3BA93BB26B1E306144023)
Полное имя : H:\Соблазнитель 2 Kokowaah 2 (2013) BDRip 720-1080p\Kokowaah.2.2013.D.BDRip.1080p.NNM-CLUB.mkv
Формат : Matroska
Версия формата : Version 2
Размер файла : 9,26 Гбайт
Продолжительность : 2 ч. 2 м.
Общий поток : 10,8 Мбит/сек
Название фильма : Kokowaah.2.2013.1080p.BluRay.x264-ETM
Дата кодирования : UTC 2013-09-13 08:07:07
Программа кодирования : mkvmerge v2.9.9 ('Tutu') built on Nov 25 2009 21:13:32
Библиотека кодирования : libebml v0.7.9 libmatroska v0.8.1
Видео
Идентификатор : 1
Формат : AVC
Формат/Информация : Advanced Video Codec
Профиль формата : High@L4.1
Параметр CABAC формата : Да
Параметр ReFrames формата : 5 кадров
Идентификатор кодека : V_MPEG4/ISO/AVC
Продолжительность : 2 ч. 2 м.
Битрейт : 7139 Кбит/сек
Ширина : 1920 пикселей
Высота : 816 пикселей
Соотношение сторон : 2,35:1
Режим частоты кадров : Постоянный
Частота кадров : 23,976 кадра/сек
Цветовое пространство : YUV
Субдискретизация насыщенности : 4:2:0
Битовая глубина : 8 бит
Тип развёртки : Прогрессивная
Бит/(Пиксели*Кадры) : 0.190
Размер потока : 6,11 Гбайт (66%)
Заголовок : -=Release for СПАМ
Библиотека кодирования : x264 core 133 r2334 a3ac64b
Настройки программы : cabac=1 / ref=5 / deblock=1:0:0 / analyse=0x3:0x113 / me=umh / subme=7 / psy=1 / psy_rd=1.00:0.00 / mixed_ref=1 / me_range=16 / chroma_me=1 / trellis=1 / 8x8dct=1 / cqm=0 / deadzone=21,11 / fast_pskip=0 / chroma_qp_offset=-2 / threads=6 / lookahead_threads=1 / sliced_threads=0 / nr=0 / decimate=1 / interlaced=0 / bluray_compat=0 / constrained_intra=0 / bframes=3 / b_pyramid=2 / b_adapt=1 / b_bias=0 / direct=1 / weightb=1 / open_gop=0 / weightp=2 / keyint=250 / keyint_min=23 / scenecut=40 / intra_refresh=0 / rc_lookahead=40 / rc=crf / mbtree=1 / crf=20.0 / qcomp=0.60 / qpmin=0 / qpmax=69 / qpstep=4 / ip_ratio=1.40 / aq=1:1.00
Язык : German
Default : Нет
Forced : Нет
Аудио #1
Идентификатор : 2
Формат : AC-3
Формат/Информация : Audio Coding 3
Расширение режима : CM (complete main)
Параметр Endianness формата : Big
Идентификатор кодека : A_AC3
Продолжительность : 2 ч. 2 м.
Вид битрейта : Постоянный
Битрейт : 448 Кбит/сек
Каналы : 2 канала
Расположение каналов : Front: L R
Частота : 48,0 КГц
Битовая глубина : 16 бит
Метод сжатия : С потерями
Размер потока : 392 Мбайт (4%)
Заголовок : AC3.448.Kbps (2ch) Russian (Дубляж Line)
Язык : Russian
Default : Да
Forced : Нет
Аудио #2
Идентификатор : 3
Формат : DTS
Формат/Информация : Digital Theater Systems
Режим : 16
Параметр Endianness формата : Big
Идентификатор кодека : A_DTS
Продолжительность : 2 ч. 2 м.
Вид битрейта : Постоянный
Битрейт : 1509 Кбит/сек
Каналы : 6 каналов
Расположение каналов : Front: L C R, Side: L R, LFE
Частота : 48,0 КГц
Битовая глубина : 24 бит
Метод сжатия : С потерями
Размер потока : 1,29 Гбайт (14%)
Заголовок : DTS.1509.Kbps (6ch) Russian (DVO-HamsterStudio)
Язык : Russian
Default : Нет
Forced : Нет
Аудио #3
Идентификатор : 4
Формат : DTS
Формат/Информация : Digital Theater Systems
Режим : 16
Параметр Endianness формата : Big
Идентификатор кодека : A_DTS
Продолжительность : 2 ч. 2 м.
Вид битрейта : Постоянный
Битрейт : 1509 Кбит/сек
Каналы : 6 каналов
Расположение каналов : Front: L C R, Side: L R, LFE
Частота : 48,0 КГц
Битовая глубина : 24 бит
Метод сжатия : С потерями
Задержка видео : 11 мс.
Размер потока : 1,29 Гбайт (14%)
Заголовок : DTS.1509.Kbps (6ch) German
Язык : German
Default : Нет
Forced : Нет
Текст #1
Идентификатор : 5
Формат : UTF-8
Идентификатор кодека : S_TEXT/UTF8
Идентификатор кодека/Информация : UTF-8 Plain Text
Заголовок : English (Full)
Язык : English
Default : Нет
Forced : Нет
Текст #2
Идентификатор : 6
Формат : UTF-8
Идентификатор кодека : S_TEXT/UTF8
Идентификатор кодека/Информация : UTF-8 Plain Text
Заголовок : German (Full)
Язык : German
Default : Нет
Forced : Нет

Скриншоты

Скачать

Скачать торрент!

Как скачивать? · Что такое торрент? · Рейтинг и ограничения

Сайт не распространяет и не хранит электронные версии произведений, а лишь предоставляет доступ к создаваемому пользователями каталогу ссылок на торрент-файлы, которые содержат только списки хеш-сумм

[Профиль] [ЛС]
Показать сообщения:    
Ответить на тему

Текущее время: Сегодня 07:52

Часовой пояс: GMT + 4



Вы не можете начинать темы
Вы не можете отвечать на сообщения
Вы не можете редактировать свои сообщения
Вы не можете удалять свои сообщения
Вы не можете голосовать в опросах
Вы не можете прикреплять файлы к сообщениям
Вы не можете скачивать файлы