Параллельные миры / Upside Down (Хуан Диего Соланас / Juan Diego Solanas) [2012, Канада, Франция, фэнтези, мелодрама, BDRip 1080p] [US Transfer] Dub + Sub Rus,Eng + Original Eng

Ответить на тему
 
Автор Сообщение

user ®

Стаж: 7 лет 7 месяцев

Сообщений: 20008

Пост Пост: #1 от 17-Сен-2013 01:30

[Цитировать]

Параллельные миры / Upside Down Страна: Канада, Франция
Студия: Onyx Films, Studio 37, Transfilm
Жанр: фэнтези, мелодрама
Год выпуска: 2012
Продолжительность: 01:48:06
Перевод: Профессиональный (дублированный) Blu-ray
Cубтитры: русские,английские
Оригинальная аудиодорожка: английский
Режиссер: Хуан Диего Соланас / Juan Diego Solanas
В ролях: Кирстен Данст, Джим Стёрджесс, Тимоти Сполл, Джейн Хейтмейер, Агнешка Вроновска, Нил Напье, Джеймс Кидни, Хайди Хоукинс, Холли О’Брайэн, Фрэнк М. Эхерн
Описание: Очень давно две планеты притянулись друг к другу, и на обеих планетах живут люди, для каждой из планет есть своё притяжение. На верхней планете царит богатство и благоденствие. На ней создана корпорация, выкачивающая недры второй планеты и взамен предлагающая электроэнергию по неподъёмной для бедных жителей нижней планеты цене. Перемещение людей между планетами жестко контролируется. В центре событий находятся двое людей: она — девушка из богатой семьи из верхнего мира, он — простой человек из нижнего мира, и они любят друг друга. А ещё есть секрет пчелиной пыльцы, которая добывается одновременно на обеих планетах и имеет невероятные свойства.

Тип релиза: BDRip 1080p[EbP]
Контейнер: MKV
Видео: AVC,1920x818,13000 kbps,23.976 fps
Аудио 1: Russian: 48 kHz, AC3, 3/2 (L,C,R,l,r) + LFE ch, ~640.00 kbps avg|Blu-ray|
Аудио 2: English: 48 kHz, AC3, 3/2 (L,C,R,l,r) + LFE ch, ~640.00 kbps avg |Original|
Чаптеры:есть

MediaInfo

General
Unique ID : 237744411080169161837265681511768770383 (0xB2DBE875600125B09095B09D39F1C74F)
Complete name : D:\Рипы\Upside.Down.2012.Extended.Cut.1080p.BluRay.DD5.1.x264-Talian-.mkv
Format : Matroska
Format version : Version 2
File size : 11.1 GiB
Duration : 1h 48mn
Overall bit rate : 14.7 Mbps
Movie name : -Talian-
Encoded date : UTC 2013-09-15 11:25:04
Writing application : mkvmerge v5.7.0 ('The Whirlwind') built on Jul 8 2012 20:08:51
Writing library : libebml v1.2.3 + libmatroska v1.3.0
Video
ID : 1
Format : AVC
Format/Info : Advanced Video Codec
Format profile : High@L4.1
Format settings, CABAC : Yes
Format settings, ReFrames : 5 frames
Codec ID : V_MPEG4/ISO/AVC
Duration : 1h 48mn
Bit rate : 13.1 Mbps
Width : 1 920 pixels
Height : 818 pixels
Display aspect ratio : 2.35:1
Frame rate : 23.976 fps
Color space : YUV
Chroma subsampling : 4:2:0
Bit depth : 8 bits
Scan type : Progressive
Bits/(Pixel*Frame) : 0.348
Stream size : 9.89 GiB (89%)
Title : EbP
Writing library : x264 core 130 r2273 b3065e6
Encoding settings : cabac=1 / ref=5 / deblock=1:-3:-3 / analyse=0x3:0x133 / me=umh / subme=10 / psy=1 / psy_rd=1.05:0.00 / mixed_ref=1 / me_range=64 / chroma_me=1 / trellis=2 / 8x8dct=1 / cqm=0 / deadzone=21,11 / fast_pskip=0 / chroma_qp_offset=-2 / threads=12 / lookahead_threads=2 / sliced_threads=0 / nr=0 / decimate=0 / interlaced=0 / bluray_compat=0 / constrained_intra=0 / bframes=9 / b_pyramid=2 / b_adapt=2 / b_bias=0 / direct=3 / weightb=1 / open_gop=0 / weightp=2 / keyint=250 / keyint_min=23 / scenecut=40 / intra_refresh=0 / rc=crf / mbtree=0 / crf=19.5 / qcomp=0.75 / qpmin=0 / qpmax=69 / qpstep=4 / ip_ratio=1.30 / pb_ratio=1.30 / aq=1:0.80
Language : English
Default : No
Forced : No
Audio #1
ID : 2
Format : AC-3
Format/Info : Audio Coding 3
Mode extension : CM (complete main)
Format settings, Endianness : Big
Codec ID : A_AC3
Duration : 1h 48mn
Bit rate mode : Constant
Bit rate : 640 Kbps
Channel(s) : 6 channels
Channel positions : Front: L C R, Side: L R, LFE
Sampling rate : 48.0 KHz
Bit depth : 16 bits
Compression mode : Lossy
Stream size : 495 MiB (4%)
Title : DUB-Blu-ray
Language : Russian
Default : Yes
Forced : No
Audio #2
ID : 3
Format : AC-3
Format/Info : Audio Coding 3
Mode extension : CM (complete main)
Format settings, Endianness : Big
Codec ID : A_AC3
Duration : 1h 48mn
Bit rate mode : Constant
Bit rate : 640 Kbps
Channel(s) : 6 channels
Channel positions : Front: L C R, Side: L R, LFE
Sampling rate : 48.0 KHz
Bit depth : 16 bits
Compression mode : Lossy
Stream size : 495 MiB (4%)
Title : Original
Language : English
Default : No
Forced : No
Text #1
ID : 4
Format : UTF-8
Codec ID : S_TEXT/UTF8
Codec ID/Info : UTF-8 Plain Text
Title : Sub
Language : Russian
Default : No
Forced : No
Text #2
ID : 5
Format : UTF-8
Codec ID : S_TEXT/UTF8
Codec ID/Info : UTF-8 Plain Text
Title : Sub
Language : English
Default : No
Forced : No
Menu
00:00:00.000 : en:00:00:00.000
00:08:00.438 : en:00:08:00.438
00:14:32.246 : en:00:14:32.246
00:22:38.357 : en:00:22:38.357
00:35:24.122 : en:00:35:24.122
00:42:27.086 : en:00:42:27.086
00:50:48.295 : en:00:50:48.295
01:05:32.262 : en:01:05:32.262
01:14:12.657 : en:01:14:12.657
01:23:08.859 : en:01:23:08.859
01:31:19.808 : en:01:31:19.808
01:38:59.600 : en:01:38:59.600

Скриншоты

Source vs Encode


Скачать

Скачать торрент!

Как скачивать? · Что такое торрент? · Рейтинг и ограничения

Сайт не распространяет и не хранит электронные версии произведений, а лишь предоставляет доступ к создаваемому пользователями каталогу ссылок на торрент-файлы, которые содержат только списки хеш-сумм

[Профиль] [ЛС]
Показать сообщения:    
Ответить на тему

Текущее время: Сегодня 20:01

Часовой пояс: GMT + 4



Вы не можете начинать темы
Вы не можете отвечать на сообщения
Вы не можете редактировать свои сообщения
Вы не можете удалять свои сообщения
Вы не можете голосовать в опросах
Вы не можете прикреплять файлы к сообщениям
Вы не можете скачивать файлы