Лишний умрет / The Odd One Dies / Liang ge zhi neng huo yi ge (Патрик Яу / Patrick Yau) [1997, Гонконг, драма, криминал, DVDRip] VO (Акира) + Sub Rus + Original Chi

Ответить на тему
 
Автор Сообщение

user ®

Стаж: 11 лет

Сообщений: 15151

Пост Пост: #1 от 16-Сен-2013 22:25

[Цитировать]

Лишний умрет / The Odd One Dies / Liang ge zhi neng huo yi ge
Страна: Гонконг
Жанр: драма, криминал
Год выпуска: 1997
Продолжительность: 01:30:08
-
Перевод: Одноголосый закадровый Акира
Cубтитры: русские
Оригинальная аудиодорожка: китайский
-
Режиссер: Патрик Яу / Patrick Yau
В ролях: Такеши Канеширо, Карман Ли, Ли То-Ю, Бин Ю, Кен Чой
-
Описание: Неприкаянный бандит берется за заказ на убийство, соглашаясь на слишком низкий гонорар – ему срочно нужно отыграть проигрыш в казино. Удача ему улыбается и он возвращает все проигранное плюс кое-что сверху и теперь он не хочет выполнять задание сам, а планирует найти непосредственного исполнителя, который через несколько дней изрешетит пулями видного тайландского бизнесмена. Так как охрана у жертвы хорошая, этот человек вряд ли покинет место преступления живым, но, тем не менее, желающий взяться за эту работу находится – это только что вышедшая из тюрьмы девушка. До часа «Х» остается пара суток, которые двое проведут вместе.
-

-
Качество видео: DVDRip
Формат видео: AVI
Видео: 640x368 (1.74:1), 23.976 fps, XviD build 73 ~1886 kbps avg, 0.33 bit/pixel
Аудио 1: 48 kHz, AC3 Dolby Digital, 2/0 (L,R) ch, ~224 kbps RUS
Аудио 2: 48 kHz, AC3 Dolby Digital, 2/0 (L,R) ch, ~192 kbps CHI

MediaInfo

General
Complete name : D:\Релизы\The Odd One Dies.1997.RUS.CHI.DVDRip.XviD.AC3\The Odd One Dies.1997.RUS.CHI.DVDRip.XviD.AC3.avi
Format : AVI
Format/Info : Audio Video Interleave
File size : 1.46 GiB
Duration : 1h 30mn
Overall bit rate : 2 318 Kbps
Writing application : VirtualDubMod 1.5.10.2 (build 2540/release)
Writing library : VirtualDubMod build 2540/release
Video
ID : 0
Format : MPEG-4 Visual
Format profile : Advanced Simple@L5
Format settings, BVOP : 1
Format settings, QPel : No
Format settings, GMC : No warppoints
Format settings, Matrix : Custom
Codec ID : XVID
Codec ID/Hint : XviD
Duration : 1h 30mn
Bit rate : 1 887 Kbps
Width : 640 pixels
Height : 368 pixels
Display aspect ratio : 1.739
Frame rate : 23.976 fps
Color space : YUV
Chroma subsampling : 4:2:0
Bit depth : 8 bits
Scan type : Progressive
Compression mode : Lossy
Bits/(Pixel*Frame) : 0.334
Stream size : 1.19 GiB (81%)
Writing library : XviD 73
Audio #1
ID : 1
Format : AC-3
Format/Info : Audio Coding 3
Mode extension : CM (complete main)
Format settings, Endianness : Big
Codec ID : 2000
Duration : 1h 30mn
Bit rate mode : Constant
Bit rate : 224 Kbps
Channel(s) : 2 channels
Channel positions : Front: L R
Sampling rate : 48.0 KHz
Bit depth : 16 bits
Compression mode : Lossy
Stream size : 144 MiB (10%)
Alignment : Split accross interleaves
Interleave, duration : 42 ms (1.00 video frame)
Interleave, preload duration : 500 ms
Audio #2
ID : 2
Format : AC-3
Format/Info : Audio Coding 3
Mode extension : CM (complete main)
Format settings, Endianness : Big
Codec ID : 2000
Duration : 1h 30mn
Bit rate mode : Constant
Bit rate : 192 Kbps
Channel(s) : 2 channels
Channel positions : Front: L R
Sampling rate : 48.0 KHz
Bit depth : 16 bits
Compression mode : Lossy
Stream size : 124 MiB (8%)
Alignment : Split accross interleaves
Interleave, duration : 42 ms (1.00 video frame)
Interleave, preload duration : 500 ms

Скриншоты

Скачать

Скачать торрент! Лишний умрет / The Odd One Dies / Liang ge zhi neng huo yi ge (Патрик Яу / Patrick Yau) [1997, Гонконг, драма, криминал, DVDRip] VO (Акира) + Sub Rus + Original Chi

Как скачивать? · Что такое торрент? · Рейтинг и ограничения

Сайт не распространяет и не хранит электронные версии произведений, а лишь предоставляет доступ к создаваемому пользователями каталогу ссылок на торрент-файлы, которые содержат только списки хеш-сумм

[Профиль] [ЛС]
Показать сообщения:    
Ответить на тему

Текущее время: Сегодня 00:16

Часовой пояс: GMT + 4



Вы не можете начинать темы
Вы не можете отвечать на сообщения
Вы не можете редактировать свои сообщения
Вы не можете удалять свои сообщения
Вы не можете голосовать в опросах
Вы не можете прикреплять файлы к сообщениям
Вы не можете скачивать файлы