Битва Волшебников: Алекс vs Алекс / Возвращение волшебников: Алекс против Алекс / The Wizards Return: Alex vs. Alex (Виктор Гонзалез / Victor Gonzalez) [2013, США, фэнтези, драма, комедия, приключения, семейный, WEB-DLRip] Dub

Ответить на тему
 
Автор Сообщение

user ®

Стаж: 7 лет 7 месяцев

Сообщений: 20008

Пост Пост: #1 от 16-Сен-2013 22:25

[Цитировать]

Битва волшебников: Алекс vs Алекс / Возвращение волшебников: Алекс против Алекс / The Wizards Return: Alex vs. Alex
Страна: США
Жанр: фэнтези, драма, комедия, приключения, семейный
Год выпуска: 2013
Продолжительность: 00:58:37
Перевод: Профессиональный (полное дублирование) Канал Disney
Cубтитры: нет
Оригинальная аудиодорожка: нет
Режиссер: Виктор Гонзалез / Victor Gonzalez
В ролях: Селена Гомес, Бо Мирчофф, Джейк Т. Остин, Дженнифер Стоун, Мария Кэнелс-Баррера, Дэвид ДеЛуис, Грегг Салкин, Винс Фалзон, Никки Хан, Эвелин Илиопулос-Описание: Руссо вместе с друзьями отправились в Тоскану - на историческую родину, повидаться с дальними родственниками. Однако непоседа Алекс, желая доказать, что она - нечто большее, чем просто беззаботная юная волшебница, случайно наложила на себя довольно необычное древнее заклятие: ее сущность разделилась на две противоположные половины, Злую Алекс и, соответственно, Добрую. Так что теперь, пока Злой двойник строит планы по захвату всего Мира, настоящая юная кудесница вынуждена не только ее усмирять - на вершине Пизанской Башни - но и попутно разбираться с собственными родственниками.-Рейтинг:
imdb.com: 6.0 (1316)
kinopoisk.ru: 5.789 (351)-Семпл
Качество видео: WEB-DLRip
Формат видео: AVI
Видео: 720x400 (1.80:1), 23.976 fps, XviD build 50, 1527 kbps avg, 0.22 bit/pixel
Аудио: 44.100 kHz, MPEG Layer 3, 2 ch, 128 kbps avg

MediaInfo

Полное имя : Битва волшебников.avi
Формат : AVI
Формат/Информация : Audio Video Interleave
Размер файла : 698 Мбайт
Продолжительность : 58 м.
Общий поток : 1665 Кбит/сек
Программа кодирования : VirtualDubMod 1.5.10.2 (build 2540/release)
Библиотека кодирования : VirtualDubMod build 2540/release
Видео
Идентификатор : 0
Формат : MPEG-4 Visual
Профиль формата : Advanced Simple@L5
Параметр BVOP формата : 2
Параметр QPel формата : Нет
Параметр GMC формата : Без точки перехода
Параметр матрицы формата : Default (MPEG)
Идентификатор кодека : XVID
Идентификатор кодека/Подсказка : XviD
Продолжительность : 58 м.
Битрейт : 1527 Кбит/сек
Ширина : 720 пикселей
Высота : 400 пикселей
Соотношение сторон : 16:9
Частота кадров : 23,976 кадра/сек
Цветовое пространство : YUV
Субдискретизация насыщенности : 4:2:0
Битовая глубина : 8 бит
Тип развёртки : Прогрессивная
Метод сжатия : С потерями
Бит/(Пиксели*Кадры) : 0.221
Размер потока : 640 Мбайт (92%)
Библиотека кодирования : XviD 1.2.1 (UTC 2008-12-04)
Аудио
Идентификатор : 1
Формат : MPEG Audio
Версия формата : Version 1
Профиль формата : Layer 3
Идентификатор кодека : 55
Идентификатор кодека/Подсказка : MP3
Продолжительность : 58 м.
Вид битрейта : Постоянный
Битрейт : 128 Кбит/сек
Каналы : 2 канала
Частота : 44,1 КГц
Метод сжатия : С потерями
Задержка видео : 12 мс.
Размер потока : 53,7 Мбайт (8%)
Выравнивание : Разделение по промежуткам
Продолжительность промежутка : 42 мс. (1,00 видеокадр)
Время предзагрузки промежутка : 500 мс.

Скриншот c названием фильма

Скриншоты

Скачать

Скачать торрент!

Как скачивать? · Что такое торрент? · Рейтинг и ограничения

Сайт не распространяет и не хранит электронные версии произведений, а лишь предоставляет доступ к создаваемому пользователями каталогу ссылок на торрент-файлы, которые содержат только списки хеш-сумм

[Профиль] [ЛС]
Показать сообщения:    
Ответить на тему

Текущее время: Сегодня 00:10

Часовой пояс: GMT + 4



Вы не можете начинать темы
Вы не можете отвечать на сообщения
Вы не можете редактировать свои сообщения
Вы не можете удалять свои сообщения
Вы не можете голосовать в опросах
Вы не можете прикреплять файлы к сообщениям
Вы не можете скачивать файлы