История Антуана Фишера / Antwone Fisher (Дензел Вашингтон / Denzel Washington) [2002, США, драма, мелодрама, биография, BDRip 1080p] MVO (20th Century Fox) + MVO + Sub Rus + Original Eng

Ответить на тему
 
Автор Сообщение

user ®

Стаж: 7 лет 7 месяцев

Сообщений: 20008

Пост Пост: #1 от 16-Сен-2013 19:15

[Цитировать]

История Антуана Фишера / Antwone Fisher
Страна: США
Жанр: драма, мелодрама, биография
Год выпуска: 2002
Продолжительность: 02:00:14
Перевод: Профессиональный (многоголосый закадровый) 20th Century Fox
Перевод 2: Профессиональный (многоголосый закадровый)
Cубтитры: русские (20th Century Fox)
Оригинальная аудиодорожка: английский
Режиссер: Дензел Вашингтон / Denzel Washington
В ролях: Дерек Люк, Дензел Вашингтон, Джой Брайант, Кевин Коннолли, Салли Ричардсон-Уитфилд, Верни Уотсон-Джонсон, Виола Дэвис, Малкольм Дэвид Келли, Кори Ходжес, Леонард Эрл Хауз
Описание: Антуан Фишер - охранник компании «Сони Пикчерс», который прославился, став известным сценаристом. Однако раньше он был моряком, списанным на берег из-за своего слишком агрессивного поведения.
Тут Фишер решает круто поменять свою жизнь и найти родителей, которые бросили его еще в младенчестве. Но в ходе поисков он начинает понимать, что его жизнь меняется отнюдь не в лучшую сторону.
Сэмпл: http://multi-up.com/903895
Тип релиза: BDRip 1080p
Контейнер: MKV
Видео: 1920x820, 23.976 fps, High@L4.1, ~16991 kbps
Аудио: Russian 48 kHz, AC3 5.1 @ 448 Kbps (MVO -> 20th Century Fox)
Аудио 2: Russian 48 kHz, DTS 5.1 @ 1510 Kbps (MVO)
Аудио 3: English 48 kHz, DTS 5.1 @ 1510 Kbps
Аудио 4: English 48 kHz, AAC 2.0 @ 83 kbps |Commentary|
Субтитры: Russian (20th Century Fox), Russian (leshik), English
Рип от CRiSC!
Релиз от:

MediaInfo

Общее
Уникальный идентификатор : 234588574770357955761680038969059358355 (0xB07C1DB72A666D67A3B9CA6FCC58B693)
Полное имя : Antwone.Fisher.2002.1080p.BluRay.x264.Rus.Eng-CRiSC.mkv
Формат : Matroska
Версия формата : Version 2
Размер файла : 17,3 Гбайт
Продолжительность : 2 ч. 0 м.
Общий поток : 20,5 Мбит/сек
Название фильма : BLUEBIRD
Дата кодирования : UTC 2013-09-14 19:44:08
Программа кодирования : mkvmerge v5.8.0 ('No Sleep / Pillow') built on Sep 2 2012 15:37:04
Библиотека кодирования : libebml v1.2.3 + libmatroska v1.3.0
Видео
Идентификатор : 1
Формат : AVC
Формат/Информация : Advanced Video Codec
Профиль формата : High@L4.1
Параметр CABAC формата : Да
Параметр ReFrames формата : 5 кадров
Идентификатор кодека : V_MPEG4/ISO/AVC
Продолжительность : 2 ч. 0 м.
Ширина : 1920 пикселей
Высота : 820 пикселей
Соотношение сторон : 2,35:1
Режим частоты кадров : Постоянный
Частота кадров : 23,976 кадра/сек
Цветовое пространство : YUV
Субдискретизация насыщенности : 4:2:0
Битовая глубина : 8 бит
Тип развёртки : Прогрессивная
Заголовок : Antwone Fisher (2002)
Библиотека кодирования : x264 core 138 r2358kMod 9e941d1
Настройки программы : cabac=1 / ref=5 / deblock=1:-3:-3 / analyse=0x3:0x133 / me=umh / subme=11 / psy=1 / fade_compensate=0.00 / psy_rd=1.00:0.00 / mixed_ref=1 / me_range=64 / chroma_me=1 / trellis=2 / 8x8dct=1 / cqm=0 / deadzone=21,11 / fast_pskip=0 / chroma_qp_offset=-2 / threads=12 / lookahead_threads=3 / sliced_threads=0 / nr=0 / decimate=0 / interlaced=0 / bluray_compat=0 / constrained_intra=0 / bframes=11 / b_pyramid=2 / b_adapt=2 / b_bias=0 / direct=3 / weightb=1 / open_gop=0 / weightp=2 / keyint=250 / keyint_min=23 / scenecut=40 / intra_refresh=0 / rc_lookahead=40 / rc=crf / mbtree=0 / crf=17.0000 / qcomp=0.65 / qpmin=0 / qpmax=69 / qpstep=4 / vbv_maxrate=50000 / vbv_bufsize=62500 / crf_max=0.0 / nal_hrd=none / ip_ratio=1.40 / pb_ratio=1.30 / aq=2:0.50
Язык : English
Default : Да
Forced : Нет
Основные цвета : BT.709
Характеристики трансфера : BT.709
Коэффициенты матрицы : BT.709
Аудио #1
Идентификатор : 2
Формат : AC-3
Формат/Информация : Audio Coding 3
Расширение режима : CM (complete main)
Параметр Endianness формата : Big
Идентификатор кодека : A_AC3
Продолжительность : 2 ч. 0 м.
Вид битрейта : Постоянный
Битрейт : 448 Кбит/сек
Каналы : 6 каналов
Расположение каналов : Front: L C R, Side: L R, LFE
Частота : 48,0 КГц
Битовая глубина : 16 бит
Метод сжатия : С потерями
Размер потока : 385 Мбайт (2%)
Заголовок : MVO R5
Язык : Russian
Default : Да
Forced : Нет
Аудио #2
Идентификатор : 3
Формат : DTS
Формат/Информация : Digital Theater Systems
Режим : 16
Параметр Endianness формата : Big
Идентификатор кодека : A_DTS
Продолжительность : 2 ч. 0 м.
Вид битрейта : Постоянный
Битрейт : 1509 Кбит/сек
Каналы : 6 каналов
Расположение каналов : Front: L C R, Side: L R, LFE
Частота : 48,0 КГц
Битовая глубина : 24 бит
Метод сжатия : С потерями
Размер потока : 1,27 Гбайт (7%)
Заголовок : MVO
Язык : Russian
Default : Нет
Forced : Нет
Аудио #3
Идентификатор : 4
Формат : DTS
Формат/Информация : Digital Theater Systems
Режим : 16
Параметр Endianness формата : Big
Идентификатор кодека : A_DTS
Продолжительность : 2 ч. 0 м.
Вид битрейта : Постоянный
Битрейт : 1509 Кбит/сек
Каналы : 6 каналов
Расположение каналов : Front: L C R, Side: L R, LFE
Частота : 48,0 КГц
Битовая глубина : 24 бит
Метод сжатия : С потерями
Размер потока : 1,27 Гбайт (7%)
Язык : English
Default : Нет
Forced : Нет
Аудио #4
Идентификатор : 5
Формат : AAC
Формат/Информация : Advanced Audio Codec
Профиль формата : HE-AAC / LC
Идентификатор кодека : A_AAC
Продолжительность : 2 ч. 0 м.
Каналы : 2 канала
Расположение каналов : Front: L R
Частота : 48,0 КГц / 24,0 КГц
Метод сжатия : С потерями
Задержка видео : 40 мс.
Заголовок : Commentary AAC 2.0 @ 83 kbps
Язык : English
Default : Нет
Forced : Нет
Текст #1
Идентификатор : 6
Формат : UTF-8
Идентификатор кодека : S_TEXT/UTF8
Идентификатор кодека/Информация : UTF-8 Plain Text
Заголовок : 20th Century Fox
Язык : Russian
Default : Нет
Forced : Нет
Текст #2
Идентификатор : 7
Формат : UTF-8
Идентификатор кодека : S_TEXT/UTF8
Идентификатор кодека/Информация : UTF-8 Plain Text
Заголовок : leshik
Язык : Russian
Default : Нет
Forced : Нет
Текст #3
Идентификатор : 8
Формат : UTF-8
Идентификатор кодека : S_TEXT/UTF8
Идентификатор кодека/Информация : UTF-8 Plain Text
Заголовок : SRT
Язык : English
Default : Нет
Forced : Нет
Меню
00:00:00.000 : en:00:00:00.000
00:03:04.184 : en:00:03:04.184
00:05:32.874 : en:00:05:32.874
00:08:24.963 : en:00:08:24.963
00:10:01.976 : en:00:10:01.976
00:12:50.645 : en:00:12:50.645
00:17:54.282 : en:00:17:54.282
00:23:50.471 : en:00:23:50.471
00:25:47.546 : en:00:25:47.546
00:30:02.050 : en:00:30:02.050
00:34:41.246 : en:00:34:41.246
00:36:26.643 : en:00:36:26.643
00:39:34.747 : en:00:39:34.747
00:44:34.881 : en:00:44:34.881
00:47:30.389 : en:00:47:30.389
00:52:11.211 : en:00:52:11.211
01:00:40.929 : en:01:00:40.929
01:04:45.298 : en:01:04:45.298
01:07:39.347 : en:01:07:39.347
01:11:09.265 : en:01:11:09.265
01:14:13.699 : en:01:14:13.699
01:17:22.555 : en:01:17:22.555
01:23:17.576 : en:01:23:17.576
01:26:17.297 : en:01:26:17.297
01:29:45.714 : en:01:29:45.714
01:33:14.172 : en:01:33:14.172
01:34:48.182 : en:01:34:48.182
01:37:56.913 : en:01:37:56.913
01:40:08.920 : en:01:40:08.920
01:47:35.949 : en:01:47:35.949
01:50:53.730 : en:01:50:53.730
01:53:49.031 : en:01:53:49.031

Скриншоты

Скачать

Скачать торрент!

Как скачивать? · Что такое торрент? · Рейтинг и ограничения

Сайт не распространяет и не хранит электронные версии произведений, а лишь предоставляет доступ к создаваемому пользователями каталогу ссылок на торрент-файлы, которые содержат только списки хеш-сумм

[Профиль] [ЛС]
Показать сообщения:    
Ответить на тему

Текущее время: Сегодня 10:01

Часовой пояс: GMT + 4



Вы не можете начинать темы
Вы не можете отвечать на сообщения
Вы не можете редактировать свои сообщения
Вы не можете удалять свои сообщения
Вы не можете голосовать в опросах
Вы не можете прикреплять файлы к сообщениям
Вы не можете скачивать файлы