Единственный выстрел / A Single Shot (Дэвид М. Розенталь / David M. Rosenthal) [2013, Великобритания, США, Канада, триллер, драма, WEB-DL 1080p] VO + Original (Eng) + Sub (eng)

Ответить на тему
 
Автор Сообщение

user ®

Стаж: 7 лет 7 месяцев

Сообщений: 20008

Пост Пост: #1 от 16-Сен-2013 19:15

[Цитировать]

Единственный выстрел
A Single Shot
«One Chance» Страна: Великобритания, США, Канада
Год выпуска: 2013
Жанр: триллер, драма
Продолжительность: 01:55:45
Перевод: Одноголосый закадровый [Max Nabokov]
русские субтитры: нет-Режиссёр: Дэвид М. Розенталь : David M. Rosenthal
В главных ролях: Сэм Рокуэлл, Джеффри Райт, Келли Райлли, Джейсон Айзекс, Уильям Х. Мэйси, Тед Левайн, Джо Андерсон, Офелия Ловибонд, Мелисса Лео, Эми Слоун-Описание: История о том, как Джон Мун пошел охотиться на оленя и случайно застрелил молодую женщину, у которой затем нашел большую сумму денег. И в итоге паническое сокрытие несчастного случая превратилось в бесконечный кошмар.- -Качество: WEB-DL 1080p
Формат: MKV
Видео кодек: AVC
Аудио кодек: АС3
Видео: 1908x788, 23.976 fps, ~4 574 kbps avg, 0.127 bit/pixel
Аудио #1: [RUS] 48 kHz, AC3 Dolby Digital, 3/2 (L,C,R,l,r) + LFE ch, ~384 kbps
Аудио #2: [ENG] 48 kHz, AC3 Dolby Digital, 3/2 (L,C,R,l,r) + LFE ch, ~384 kbps
субтитры: английские
навигация по главам: 14 глав

скриншоты

MediaInfo

Общее
Уникальный идентификатор : 194548746554921046577248404445601111550 (0x925CB9C5122352E9875305DE06D29DFE)
Полное имя : D:\Im\Единственный выстрел\A Single Shot.2013.WEB-DL 1080p.mkv
Формат : Matroska
Версия формата : Version 4 / Version 2
Размер файла : 4,41 Гбайт
Продолжительность : 1 ч. 55 м.
Общий поток : 5451 Кбит/сек
Дата кодирования : UTC 2013-09-16 09:18:21
Программа кодирования : mkvmerge v6.3.0 ('You can't stop me!') built on Jun 28 2013 20:09:41
Библиотека кодирования : libebml v1.3.0 + libmatroska v1.4.0
Видео
Идентификатор : 1
Формат : AVC
Формат/Информация : Advanced Video Codec
Профиль формата : High@L4.0
Параметр CABAC формата : Да
Параметр ReFrames формата : 5 кадров
Идентификатор кодека : V_MPEG4/ISO/AVC
Продолжительность : 1 ч. 55 м.
Битрейт : 4574 Кбит/сек
Ширина : 1908 пикселей
Высота : 788 пикселей
Соотношение сторон : 2,40:1
Частота кадров : 23,976 кадра/сек
Цветовое пространство : YUV
Субдискретизация насыщенности : 4:2:0
Битовая глубина : 8 бит
Тип развёртки : Прогрессивная
Бит/(Пиксели*Кадры) : 0.127
Размер потока : 3,70 Гбайт (84%)
Язык : English
Default : Да
Forced : Нет
Основные цвета : BT.709-5, BT.1361, IEC 61966-2-4, SMPTE RP177
Характеристики трансфера : BT.709-5, BT.1361
Коэффициенты матрицы : BT.709-5, BT.1361, IEC 61966-2-4 709, SMPTE RP177
Аудио #1
Идентификатор : 2
Формат : AC-3
Формат/Информация : Audio Coding 3
Расширение режима : CM (complete main)
Идентификатор кодека : A_AC3
Продолжительность : 1 ч. 55 м.
Вид битрейта : Постоянный
Битрейт : 384 Кбит/сек
Каналы : 6 каналов
Расположение каналов : Front: L C R, Side: L R, LFE
Частота : 48,0 КГц
Битовая глубина : 16 бит
Метод сжатия : С потерями
Размер потока : 318 Мбайт (7%)
Заголовок : VO [Max Nabokov]
Язык : Russian
Default : Да
Forced : Нет
Аудио #2
Идентификатор : 3
Формат : AC-3
Формат/Информация : Audio Coding 3
Расширение режима : CM (complete main)
Идентификатор кодека : A_AC3
Продолжительность : 1 ч. 55 м.
Вид битрейта : Постоянный
Битрейт : 384 Кбит/сек
Каналы : 6 каналов
Расположение каналов : Front: L C R, Side: L R, LFE
Частота : 48,0 КГц
Битовая глубина : 16 бит
Метод сжатия : С потерями
Размер потока : 318 Мбайт (7%)
Заголовок : ENG
Язык : English
Default : Нет
Forced : Нет
Текст
Идентификатор : 4
Формат : UTF-8
Идентификатор кодека : S_TEXT/UTF8
Идентификатор кодека/Информация : UTF-8 Plain Text
Заголовок : Eng Sub
Язык : English
Default : Нет
Forced : Нет
Меню
00:00:00.000 : en:Chapter 1
00:07:07.000 : en:Chapter 2
00:15:26.000 : en:Chapter 3
00:23:34.000 : en:Chapter 4
00:32:13.000 : en:Chapter 5
00:41:11.000 : en:Chapter 6
00:50:55.000 : en:Chapter 7
00:58:31.000 : en:Chapter 8
01:06:39.000 : en:Chapter 9
01:15:09.000 : en:Chapter 10
01:26:37.000 : en:Chapter 11
01:36:19.000 : en:Chapter 12
01:42:15.000 : en:Chapter 13
01:49:14.000 : en:Chapter 14
Скачать

Скачать торрент!

Как скачивать? · Что такое торрент? · Рейтинг и ограничения

Сайт не распространяет и не хранит электронные версии произведений, а лишь предоставляет доступ к создаваемому пользователями каталогу ссылок на торрент-файлы, которые содержат только списки хеш-сумм

[Профиль] [ЛС]
Показать сообщения:    
Ответить на тему

Текущее время: Сегодня 20:39

Часовой пояс: GMT + 4



Вы не можете начинать темы
Вы не можете отвечать на сообщения
Вы не можете редактировать свои сообщения
Вы не можете удалять свои сообщения
Вы не можете голосовать в опросах
Вы не можете прикреплять файлы к сообщениям
Вы не можете скачивать файлы