Великан с топором: гнев Пола Баньяна / Баньян / Axe Giant: The Wrath of Paul Bunyan (Гэри Джонс / Gary Jones) [2013, США, ужасы, фэнтези, WEB-DL 720p] VO + Original (Eng) + Sub (eng)

Ответить на тему
 
Автор Сообщение

user ®

Стаж: 7 лет 7 месяцев

Сообщений: 20008

Пост Пост: #1 от 16-Сен-2013 16:05

[Цитировать]

Великан с топором: гнев Пола Баньяна
Axe Giant: The Wrath of Paul Bunyan
«This Tall Tale is Murder» Страна: США
Год выпуска: 2013
Жанр: ужасы, фэнтези
Продолжительность: 01:30:03
Перевод: Одноголосый закадровый [den904] по субтитрам [Antonio]
русские субтитры: нет-Режиссёр: Гэри Джонс : Gary Jones
В главных ролях: Джо Эстевез, Дэн Хэггерти, Томас Дауни, Эмбер Коннор, Тим Лавлэйс, Джесси Коув, Кристина Копф, Джилл Эвин, Клифф Уильямс-Описание: Подростки с вожатым отправляются в поход. В лесу они находят огромные человеческие следы и сразу вспоминают легенду о гигантском лесорубе Поле Баньяне, который, якобы, скрывается от людей в местных трущобах. Легенда оказалась явью и вот уже ребята, визжа от ужаса, улепётывают от чудовища…- -Качество: WEB-DL 720p
Формат: MKV
Видео кодек: AVC
Аудио кодек: АС3
Видео: 1280x716, 23.976 fps, ~3 899 kbps avg, 0.177 bit/pixel
Аудио #1: [RUS] 48.0 kHz, AC3 Dolby Digital, 2 ch, ~192 kbps
Аудио #2: [ENG] 48 kHz, AC3 Dolby Digital, 3/2 (L,C,R,l,r) + LFE ch, ~384 kbps
субтитры: английские
навигация по главам: 11 глав

скриншоты


MediaInfo

Общее
Уникальный идентификатор : 245084545675186866017443894485711025842 (0xB8619108E9818FBDB3159F80FB7376B2)
Полное имя : D:\Im\Великан с топором\Axe Giant. The Wrath of Paul Bunyan.2013.WEB-DL 720p.mkv
Формат : Matroska
Версия формата : Version 4 / Version 2
Размер файла : 2,87 Гбайт
Продолжительность : 1 ч. 30 м.
Общий поток : 4566 Кбит/сек
Дата кодирования : UTC 2013-09-16 04:46:02
Программа кодирования : mkvmerge v6.3.0 ('You can't stop me!') built on Jun 28 2013 20:09:41
Библиотека кодирования : libebml v1.3.0 + libmatroska v1.4.0
Видео
Идентификатор : 1
Формат : AVC
Формат/Информация : Advanced Video Codec
Профиль формата : High@L3.1
Параметр CABAC формата : Нет
Параметр ReFrames формата : 2 кадра
Идентификатор кодека : V_MPEG4/ISO/AVC
Продолжительность : 1 ч. 30 м.
Битрейт : 3899 Кбит/сек
Ширина : 1280 пикселей
Высота : 716 пикселей
Соотношение сторон : 16:9
Частота кадров : 23,976 кадра/сек
Цветовое пространство : YUV
Субдискретизация насыщенности : 4:2:0
Битовая глубина : 8 бит
Тип развёртки : Прогрессивная
Бит/(Пиксели*Кадры) : 0.177
Размер потока : 2,45 Гбайт (85%)
Язык : English
Default : Да
Forced : Нет
Основные цвета : BT.709-5, BT.1361, IEC 61966-2-4, SMPTE RP177
Характеристики трансфера : BT.709-5, BT.1361
Коэффициенты матрицы : BT.709-5, BT.1361, IEC 61966-2-4 709, SMPTE RP177
Аудио #1
Идентификатор : 2
Формат : AC-3
Формат/Информация : Audio Coding 3
Расширение режима : CM (complete main)
Идентификатор кодека : A_AC3
Продолжительность : 1 ч. 30 м.
Вид битрейта : Постоянный
Битрейт : 192 Кбит/сек
Каналы : 2 канала
Расположение каналов : Front: L R
Частота : 48,0 КГц
Битовая глубина : 16 бит
Метод сжатия : С потерями
Размер потока : 124 Мбайт (4%)
Заголовок : VO [den904]
Язык : Russian
Default : Да
Forced : Нет
Аудио #2
Идентификатор : 3
Формат : AC-3
Формат/Информация : Audio Coding 3
Расширение режима : CM (complete main)
Идентификатор кодека : A_AC3
Продолжительность : 1 ч. 30 м.
Вид битрейта : Постоянный
Битрейт : 384 Кбит/сек
Каналы : 6 каналов
Расположение каналов : Front: L C R, Side: L R, LFE
Частота : 48,0 КГц
Битовая глубина : 16 бит
Метод сжатия : С потерями
Размер потока : 247 Мбайт (8%)
Заголовок : ENG
Язык : English
Default : Нет
Forced : Нет
Текст
Идентификатор : 4
Формат : UTF-8
Идентификатор кодека : S_TEXT/UTF8
Идентификатор кодека/Информация : UTF-8 Plain Text
Заголовок : Eng Sub
Язык : English
Default : Нет
Forced : Нет
Меню
00:00:00.000 : en:Chapter 1
00:10:27.000 : en:Chapter 2
00:18:23.000 : en:Chapter 3
00:26:55.000 : en:Chapter 4
00:34:24.000 : en:Chapter 5
00:43:11.000 : en:Chapter 6
00:50:37.000 : en:Chapter 7
01:00:57.000 : en:Chapter 8
01:09:10.000 : en:Chapter 9
01:19:33.000 : en:Chapter 10
01:26:20.000 : en:Chapter 11
Скачать

Скачать торрент!

Как скачивать? · Что такое торрент? · Рейтинг и ограничения

Сайт не распространяет и не хранит электронные версии произведений, а лишь предоставляет доступ к создаваемому пользователями каталогу ссылок на торрент-файлы, которые содержат только списки хеш-сумм

[Профиль] [ЛС]
Показать сообщения:    
Ответить на тему

Текущее время: Сегодня 21:59

Часовой пояс: GMT + 4



Вы не можете начинать темы
Вы не можете отвечать на сообщения
Вы не можете редактировать свои сообщения
Вы не можете удалять свои сообщения
Вы не можете голосовать в опросах
Вы не можете прикреплять файлы к сообщениям
Вы не можете скачивать файлы