Удачу за хвост / Get Lucky (Саша Беннетт / Sacha Bennett) [2013, Великобритания, боевик, WEB-DL 720p] VO + Original (Eng) + Sub (eng)

Ответить на тему
 
Автор Сообщение

user ®

Стаж: 8 лет 1 месяц

Сообщений: 20008

Пост Пост: #1 от 16-Сен-2013 16:05

[Цитировать]

Удачу за хвост : Get Lucky Страна: Великобритания
Год выпуска: 2013
Жанр: боевик
Продолжительность: 01:25:46
Перевод: Одноголосый закадровый [Артём Белоконский]
русские субтитры: нет-Режиссёр: Саша Беннетт : Sacha Bennett
В главных ролях: Люк Тредэвэй, Эмили Атак, Крэйг Фэйрбрасс, Джеймс Космо, Терри Стоун, Т.Дж. Рамини, Марек Оравек, Джейсон Мацца, Ричи Кэмпелл, Ребекка Фердинандо-Описание: Лаки — мелкий преступник, живет беззаботной жизнью, пока он не соглашается позаботиться о небольшом количестве фальшивых денег для друга, у которого проблемы с законом.- -Качество: WEB-DL 720p
Формат: MKV
Видео кодек: AVC
Аудио кодек: АС3
Видео: 1280x720, 23.976 fps, ~3 882 kbps avg, 0.176 bit/pixel
Аудио #1: [RUS] 48 kHz, AC3 Dolby Digital, 3/2 (L,C,R,l,r) + LFE ch, ~384 kbps
Аудио #2: [ENG] 48 kHz, AC3 Dolby Digital, 3/2 (L,C,R,l,r) + LFE ch, ~384 kbps
субтитры: английские
навигация по главам: 9 глав

скриншоты

MediaInfo

Общее
Уникальный идентификатор : 210847965258651262228853814423290878061 (0x9E9FD74BCEA2A63CADF1CF18242B986D)
Полное имя : D:\Im\Удачу за хвост\Get Lucky.2013.WEB-DL 720p.mkv
Формат : Matroska
Версия формата : Version 4 / Version 2
Размер файла : 2,84 Гбайт
Продолжительность : 1 ч. 25 м.
Общий поток : 4744 Кбит/сек
Дата кодирования : UTC 2013-09-16 05:19:37
Программа кодирования : mkvmerge v6.3.0 ('You can't stop me!') built on Jun 28 2013 20:09:41
Библиотека кодирования : libebml v1.3.0 + libmatroska v1.4.0
Видео
Идентификатор : 1
Формат : AVC
Формат/Информация : Advanced Video Codec
Профиль формата : High@L3.1
Параметр CABAC формата : Нет
Параметр ReFrames формата : 2 кадра
Идентификатор кодека : V_MPEG4/ISO/AVC
Продолжительность : 1 ч. 25 м.
Битрейт : 3882 Кбит/сек
Ширина : 1280 пикселей
Высота : 720 пикселей
Соотношение сторон : 16:9
Частота кадров : 23,976 кадра/сек
Цветовое пространство : YUV
Субдискретизация насыщенности : 4:2:0
Битовая глубина : 8 бит
Тип развёртки : Прогрессивная
Бит/(Пиксели*Кадры) : 0.176
Размер потока : 2,33 Гбайт (82%)
Язык : English
Default : Да
Forced : Нет
Основные цвета : BT.709-5, BT.1361, IEC 61966-2-4, SMPTE RP177
Характеристики трансфера : BT.709-5, BT.1361
Коэффициенты матрицы : BT.709-5, BT.1361, IEC 61966-2-4 709, SMPTE RP177
Аудио #1
Идентификатор : 2
Формат : AC-3
Формат/Информация : Audio Coding 3
Расширение режима : CM (complete main)
Идентификатор кодека : A_AC3
Продолжительность : 1 ч. 25 м.
Вид битрейта : Постоянный
Битрейт : 384 Кбит/сек
Каналы : 6 каналов
Расположение каналов : Front: L C R, Side: L R, LFE
Частота : 48,0 КГц
Битовая глубина : 16 бит
Метод сжатия : С потерями
Размер потока : 236 Мбайт (8%)
Заголовок : VO [Артём Белоконский]
Язык : Russian
Default : Да
Forced : Нет
Аудио #2
Идентификатор : 3
Формат : AC-3
Формат/Информация : Audio Coding 3
Расширение режима : CM (complete main)
Идентификатор кодека : A_AC3
Продолжительность : 1 ч. 25 м.
Вид битрейта : Постоянный
Битрейт : 384 Кбит/сек
Каналы : 6 каналов
Расположение каналов : Front: L C R, Side: L R, LFE
Частота : 48,0 КГц
Битовая глубина : 16 бит
Метод сжатия : С потерями
Размер потока : 236 Мбайт (8%)
Заголовок : ENG
Язык : English
Default : Нет
Forced : Нет
Текст
Идентификатор : 4
Формат : UTF-8
Идентификатор кодека : S_TEXT/UTF8
Идентификатор кодека/Информация : UTF-8 Plain Text
Заголовок : Eng Sub [SDH]
Язык : English
Default : Нет
Forced : Нет
Меню
00:00:00.000 : en:1
00:10:49.000 : en:2
00:18:34.000 : en:3
00:29:56.000 : en:4
00:40:29.000 : en:5
00:51:26.000 : en:6
01:00:37.000 : en:7
01:10:01.000 : en:8
01:21:45.000 : en:9
Скачать

Скачать торрент!

Как скачивать? · Что такое торрент? · Рейтинг и ограничения

Сайт не распространяет и не хранит электронные версии произведений, а лишь предоставляет доступ к создаваемому пользователями каталогу ссылок на торрент-файлы, которые содержат только списки хеш-сумм

[Профиль] [ЛС]
Показать сообщения:    
Ответить на тему

Текущее время: Сегодня 23:11

Часовой пояс: GMT + 4



Вы не можете начинать темы
Вы не можете отвечать на сообщения
Вы не можете редактировать свои сообщения
Вы не можете удалять свои сообщения
Вы не можете голосовать в опросах
Вы не можете прикреплять файлы к сообщениям
Вы не можете скачивать файлы