Чего хотят мужчины (Андрей Канивченко) [2013, Мелодрама, SATRip]

Ответить на тему
 
Автор Сообщение

user ®

Стаж: 7 лет 7 месяцев

Сообщений: 20008

Пост Пост: #1 от 16-Сен-2013 16:05

[Цитировать]

Чего хотят мужчины
Жанр: Мелодрама
Год выпуска: 2013
Продолжительность: 01:30:54
Режиссёр: Андрей Канивченко
В ролях: Станислав Бондаренко, Полина Стрельникова, Елена Дубровская, Алёна Полькина, Сергей Баталов
Описание: Ася и Алексей - самая счастливая пара. Скоро свадьба. Чтобы подзаработать на нее, Алексей уезжает в Москву, а через месяц сообщает Асе, что встретил другую. Асе кажется, что это нелепость, и нужно обязательно встретиться, чтобы выяснить отношения. Она отправляется за Алексеем. Случайный попутчик говорит Асе, что любимого можно вернуть. Просто нужно знать, чего хотят мужчины от своей избранницы. Небольшие изменения – и вот уже желаннее, чем Ася, для Алексея никого не будет. Ася решается...
Сэмпл: http://multi-up.com/903742
Качество видео: SATRip
Формат видео: AVI
Видео: MPEG-4 Visual(DivX 5), 720x400(16:9), 25,000 кадров/сек, 2050 Кбит/сек
Аудио: MP3, 2 канала, 48,0 КГц, 128 Кбит/сек

MediaInfo

Общее
Полное имя : E:\Загрузки Utorrenta\Chego.hotjat.muzchiny.2013.avi
Формат : AVI
Формат/Информация : Audio Video Interleave
Размер файла : 1,39 Гбайт
Продолжительность : 1 ч. 30 м.
Общий поток : 2188 Кбит/сек
Библиотека кодирования : VirtualDub-MPEG2 build 24600/release
Видео
Идентификатор : 0
Формат : MPEG-4 Visual
Параметр BVOP формата : Да
Параметр QPel формата : Нет
Параметр GMC формата : Без точки перехода
Параметр матрицы формата : Default (H.263)
Идентификатор кодека : DX50
Идентификатор кодека/Подсказка : DivX 5
Продолжительность : 1 ч. 30 м.
Битрейт : 2050 Кбит/сек
Ширина : 720 пикселей
Высота : 400 пикселей
Соотношение сторон : 16:9
Частота кадров : 25,000 кадров/сек
Цветовое пространство : YUV
Субдискретизация насыщенности : 4:2:0
Битовая глубина : 8 бит
Тип развёртки : Прогрессивная
Метод сжатия : С потерями
Бит/(Пиксели*Кадры) : 0.285
Размер потока : 1,30 Гбайт (94%)
Библиотека кодирования : Intel(R) MPEG-4 encoder based on Intel(R) IPP 6.1 build 137.20[6.1.137.763]
Аудио
Идентификатор : 1
Формат : MPEG Audio
Версия формата : Version 1
Профиль формата : Layer 3
Режим : Joint stereo
Расширение режима : MS Stereo
Идентификатор кодека : 55
Идентификатор кодека/Подсказка : MP3
Продолжительность : 1 ч. 30 м.
Вид битрейта : Постоянный
Битрейт : 128 Кбит/сек
Каналы : 2 канала
Частота : 48,0 КГц
Метод сжатия : С потерями
Размер потока : 83,2 Мбайт (6%)
Выравнивание : Разделение по промежуткам
Продолжительность промежутка : 40 мс. (1,00 видеокадр)
Время предзагрузки промежутка : 500 мс.
Библиотека кодирования : LAME3.98.2

Скриншот c названием фильма

Скриншоты

Скачать

Скачать торрент!

Как скачивать? · Что такое торрент? · Рейтинг и ограничения

Сайт не распространяет и не хранит электронные версии произведений, а лишь предоставляет доступ к создаваемому пользователями каталогу ссылок на торрент-файлы, которые содержат только списки хеш-сумм

[Профиль] [ЛС]
Показать сообщения:    
Ответить на тему

Текущее время: Сегодня 00:22

Часовой пояс: GMT + 4



Вы не можете начинать темы
Вы не можете отвечать на сообщения
Вы не можете редактировать свои сообщения
Вы не можете удалять свои сообщения
Вы не можете голосовать в опросах
Вы не можете прикреплять файлы к сообщениям
Вы не можете скачивать файлы