ЗЛО 2 / V/H/S/2 (Саймон Баррет / Simon Barrett , Джейсон Айзенер / Jason Eisener) [2013, США, ужасы, триллер, WEB-DLRip] VO

Ответить на тему
 
Автор Сообщение

user ®

Стаж: 7 лет 7 месяцев

Сообщений: 20008

Пост Пост: #1 от 16-Сен-2013 16:05

[Цитировать]

ЗЛО 2 / V/H/S/2
Страна: США
Жанр: ужасы, триллер
Год выпуска: 2013
Продолжительность: 01:35:42
Перевод: Одноголосый закадровый den904 по переводу Janetta
Cубтитры: нет
Оригинальная аудиодорожка: нет
Режиссер: Саймон Баррет / Simon Barrett , Джейсон Айзенер / Jason Eisener.
В ролях: Лоуренс Майкл Ливайн, Келси Эбботт, Коллинз Холт, Саймон Баррет, Минди Робинсон, Моника Санчез Наварро, Адам Вингард, Ханна Хьюз, Джон Т. Вудс
Описание: В поисках пропавшего студента, пара частных детективов вламывается в его дом, где они находят коллекцию кассет VHS. Обнаружив ужасающие кадры на каждой из них, они понимают, что за исчезновением студента кроются страшные мотивы…
Сэмпл: http://multi-up.com/885113
Качество видео: WEB-DLRip
Формат видео: AVI
Видео: 688x384 (1.79:1), 23.976 fps, XviD build 64 ~982 kbps avg, 0.16 bit/pixel
Аудио: 44.100 kHz, MPEG Layer 3, 2 ch, ~101 kbps avg

MediaInfo

Общее
Полное имя : D:\Фильмы\По Жанрам\V.H.S.2.2013.HDRip.[VO-(DEN-904)].745MB[Deadmauvlad].avi
Формат : AVI
Формат/Информация : Audio Video Interleave
Размер файла : 750 Мбайт
Продолжительность : 1 ч. 35 м.
Режим общего битрейта : Переменный
Общий поток : 1095 Кбит/сек
Название фильма : V.H.S.2.2013.HDRip.[VO-(DEN-904)].745MB[Deadmauvlad]
Режиссёр : ~Deadmauvlad~
Жанр : Horror
Программа кодирования : VirtualDubMod 1.5.4.1 (build 2178/release)
Формат оригинала/Имя : Movie
Правообладатель : Саймон Баррет, Джейсон Айзенер, Гарет Эванс
Примечание : DEN 904 по переводу Janetta Исходник WEBDLRip [1080]
Видео
Идентификатор : 0
Формат : MPEG-4 Visual
Профиль формата : Advanced Simple@L5
Параметр BVOP формата : 1
Параметр QPel формата : Нет
Параметр GMC формата : Без точки перехода
Параметр матрицы формата : Выборочная
Идентификатор кодека : XVID
Идентификатор кодека/Подсказка : XviD
Продолжительность : 1 ч. 35 м.
Битрейт : 982 Кбит/сек
Ширина : 688 пикселей
Высота : 384 пикселя
Соотношение сторон : 16:9
Частота кадров : 23,976 кадра/сек
Цветовое пространство : YUV
Субдискретизация насыщенности : 4:2:0
Битовая глубина : 8 бит
Тип развёртки : Прогрессивная
Метод сжатия : С потерями
Бит/(Пиксели*Кадры) : 0.155
Размер потока : 672 Мбайт (90%)
Библиотека кодирования : XviD 64
Аудио
Идентификатор : 1
Формат : MPEG Audio
Версия формата : Version 1
Профиль формата : Layer 3
Режим : Joint stereo
Расширение режима : MS Stereo
Идентификатор кодека : 55
Идентификатор кодека/Подсказка : MP3
Продолжительность : 1 ч. 35 м.
Вид битрейта : Переменный
Битрейт : 101 Кбит/сек
Номинальный битрейт : 112 Кбит/сек
Каналы : 2 канала
Частота : 44,1 КГц
Метод сжатия : С потерями
Размер потока : 68,9 Мбайт (9%)
Выравнивание : Соединение по промежуткам
Продолжительность промежутка : 26 мс. (0,63 видеокадр)
Время предзагрузки промежутка : 190 мс.
Библиотека кодирования : LAME3.98r
Настройки программы : -m j -V 4 -q 2 -lowpass 15.6 --abr 112

Скриншот с названием фильма

Скриншоты

Скачать

Скачать торрент!

Как скачивать? · Что такое торрент? · Рейтинг и ограничения

Сайт не распространяет и не хранит электронные версии произведений, а лишь предоставляет доступ к создаваемому пользователями каталогу ссылок на торрент-файлы, которые содержат только списки хеш-сумм

[Профиль] [ЛС]
Показать сообщения:    
Ответить на тему

Текущее время: Сегодня 18:19

Часовой пояс: GMT + 4



Вы не можете начинать темы
Вы не можете отвечать на сообщения
Вы не можете редактировать свои сообщения
Вы не можете удалять свои сообщения
Вы не можете голосовать в опросах
Вы не можете прикреплять файлы к сообщениям
Вы не можете скачивать файлы