Семейка Крудс / The Croods (Кирк де Микко, Крис Сандерс / Kirk De Micco, Chris Sanders) [2013, мультфильм, комедия, приключения, семейный, BDRip-AVC] Dub + Original (Eng) + Sub (Rus, Eng)

Ответить на тему
 
Автор Сообщение

user ®

Стаж: 13 лет

Сообщений: 15041

Пост Пост: #1 от 16-Сен-2013 12:55

[Цитировать]

Семейка Крудс / The Croods«Если они не эволюционируют, то станут историей»- Страна: США
Жанр: мультфильм, комедия, приключения, семейный
Продолжительность: 1h 38mn 37s
Год выпуска: 2013
Перевод: Профессиональный (дублированный)
Русские субтитры: Rus, Eng SRT
Режиссёр: Кирк де Микко, Крис Сандерс / Kirk De Micco, Chris Sanders
Роли озвучивали: Николас Кейдж, Эмма Стоун, Райан Рейнольдс, Кэтрин Кинер, Клорис Личмен, Кларк Дьюк, Крис Сандерс-Описание
Землетрясение уничтожило дом доисторической семьи, и теперь Крудсам придётся искать другое пристанище. А вокруг новый и опасный мир! Им на помощь приходит молодой кочевник Малой, передовые взгляды которого наталкиваются на консервативность главы семьи Груга. Но только вместе они смогут выжить и достичь своей цели…-
IMDb: 7.3 (25 351)
Сэмпл
Качество: BDRip-AVC BDRemux 1080p/HDClub
Формат: MKV
Видео: AVC 3320 Kbps 1072 x 456 (2.351) at 23.976 fps
Аудио: AC-3 448 Kbps 6 channels, 48.0 KHz Rus DUB
Аудио 2: AC-3 448 Kbps 6 channels, 48.0 KHz Eng
Субтитры: Rus, Eng SRT

MI | Log

Log

raw [info]: 1072x456p 1:1 @ 2500000/104271 fps (cfr)
x264 [info]: using SAR=1/1
x264 [info]: using cpu capabilities: MMX2 SSE2Fast SSSE3 SSE4.2 AVX
x264 [info]: profile High, level 4.1
x264 [info]: frame I:1069 Avg QP:12.59 size:123312
x264 [info]: frame P:40972 Avg QP:15.96 size: 33492
x264 [info]: frame B:99823 Avg QP:20.12 size: 9529
x264 [info]: consecutive B-frames: 5.8% 5.8% 20.6% 27.8% 18.6% 16.8% 2.8% 1.1% 0.8%
x264 [info]: mb I I16..4: 9.0% 60.2% 30.9%
x264 [info]: mb P I16..4: 3.1% 16.6% 2.5% P16..4: 26.7% 27.6% 14.0% 4.1% 0.9% skip: 4.5%
x264 [info]: mb B I16..4: 0.4% 2.9% 0.4% B16..8: 32.6% 19.2% 3.8% direct: 5.2% skip:35.5% L0:42.5% L1:40.5% BI:17.0%
x264 [info]: 8x8 transform intra:74.9% inter:54.2%
x264 [info]: direct mvs spatial:94.4% temporal:5.6%
x264 [info]: coded y,uvDC,uvAC intra: 81.1% 85.9% 66.5% inter: 24.3% 21.3% 9.6%
x264 [info]: i16 v,h,dc,p: 58% 6% 3% 33%
x264 [info]: i8 v,h,dc,ddl,ddr,vr,hd,vl,hu: 10% 10% 7% 9% 12% 11% 14% 12% 16%
x264 [info]: i4 v,h,dc,ddl,ddr,vr,hd,vl,hu: 11% 9% 7% 8% 15% 13% 14% 10% 13%
x264 [info]: i8c dc,h,v,p: 40% 25% 14% 20%
x264 [info]: Weighted P-Frames: Y:5.7% UV:4.5%
x264 [info]: ref P L0: 51.4% 10.4% 13.1% 7.2% 4.5% 3.9% 2.7% 2.1% 1.4% 1.6% 1.3% 0.4% 0.0%
x264 [info]: ref B L0: 74.3% 9.8% 5.4% 2.9% 2.8% 1.5% 1.6% 0.8% 0.6% 0.2%
x264 [info]: ref B L1: 91.8% 8.2%
x264 [info]: kb/s:3319.66
x264 [total]: encoded 141864 frames, 11.34 fps, 3319.66 kb/s
Format                                   : MatroskaFormat version                           : Version 4 / Version 2File size                                : 2.91 GiBDuration                                 : 1h 38mnOverall bit rate                         : 4 218 KbpsEncoded date                             : UTC 2013-09-16 04:44:57Writing application                      : mkvmerge v6.3.0 ('You can't stop me!') built on Jul 19 2013 16:27:38Writing library                          : libebml v1.3.0 + libmatroska v1.4.1
VideoID : 1Format : AVCFormat/Info : Advanced Video CodecFormat profile : High@L4.1Format settings, CABAC : YesFormat settings, ReFrames : 11 framesCodec ID : V_MPEG4/ISO/AVCDuration : 1h 38mnBit rate : 3 320 KbpsWidth : 1 072 pixelsHeight : 456 pixelsDisplay aspect ratio : 2.35:1Frame rate mode : ConstantFrame rate : 23.976 fpsColor space : YUVChroma subsampling : 4:2:0Bit depth : 8 bitsScan type : ProgressiveBits/(Pixel*Frame) : 0.283Stream size : 2.23 GiB (77%)Writing library : x264 core 138 r2358 9e941d1Encoding settings : cabac=1 / ref=11 / deblock=1:-2:-1 / analyse=0x3:0x133 / me=umh / subme=11 / psy=1 / psy_rd=1.00:0.05 / mixed_ref=1 / me_range=32 / chroma_me=1 / trellis=2 / 8x8dct=1 / cqm=0 / deadzone=21,11 / fast_pskip=0 / chroma_qp_offset=-3 / threads=12 / lookahead_threads=2 / sliced_threads=0 / nr=0 / decimate=1 / interlaced=0 / bluray_compat=0 / constrained_intra=0 / bframes=8 / b_pyramid=2 / b_adapt=2 / b_bias=0 / direct=3 / weightb=1 / open_gop=0 / weightp=2 / keyint=250 / keyint_min=23 / scenecut=40 / intra_refresh=0 / rc_lookahead=60 / rc=2pass / mbtree=1 / bitrate=3320 / ratetol=1.0 / qcomp=0.60 / qpmin=0 / qpmax=69 / qpstep=4 / cplxblur=20.0 / qblur=0.5 / ip_ratio=1.40 / aq=1:1.00Language : EnglishDefault : YesForced : No
Audio #1ID : 2Format : AC-3Format/Info : Audio Coding 3Mode extension : CM (complete main)Format settings, Endianness : BigCodec ID : A_AC3Duration : 1h 38mnBit rate mode : ConstantBit rate : 448 KbpsChannel(s) : 6 channelsChannel positions : Front: L C R, Side: L R, LFESampling rate : 48.0 KHzBit depth : 16 bitsCompression mode : LossyStream size : 316 MiB (11%)Title : Rus DubLanguage : RussianDefault : YesForced : No
Audio #2ID : 3Format : AC-3Format/Info : Audio Coding 3Mode extension : CM (complete main)Format settings, Endianness : BigCodec ID : A_AC3Duration : 1h 38mnBit rate mode : ConstantBit rate : 448 KbpsChannel(s) : 6 channelsChannel positions : Front: L C R, Side: L R, LFESampling rate : 48.0 KHzBit depth : 16 bitsCompression mode : LossyStream size : 316 MiB (11%)Title : Eng (Original)Language : EnglishDefault : NoForced : No
Text #1ID : 4Format : UTF-8Codec ID : S_TEXT/UTF8Codec ID/Info : UTF-8 Plain TextTitle : Rus (Voronin)Language : RussianDefault : NoForced : No
Text #2ID : 5Format : UTF-8Codec ID : S_TEXT/UTF8Codec ID/Info : UTF-8 Plain TextTitle : EngLanguage : EnglishDefault : NoForced : No

Скриншоты

[
Скачать

Скачать торрент! Семейка Крудс / The Croods (Кирк де Микко, Крис Сандерс / Kirk De Micco, Chris Sanders) [2013, мультфильм, комедия, приключения, семейный, BDRip-AVC] Dub + Original (Eng) + Sub (Rus, Eng)

Как скачивать? · Что такое торрент? · Рейтинг и ограничения

Сайт не распространяет и не хранит электронные версии произведений, а лишь предоставляет доступ к создаваемому пользователями каталогу ссылок на торрент-файлы, которые содержат только списки хеш-сумм

[Профиль] [ЛС]
Показать сообщения:    
Ответить на тему

Текущее время: Сегодня 10:22

Часовой пояс: GMT + 4



Вы не можете начинать темы
Вы не можете отвечать на сообщения
Вы не можете редактировать свои сообщения
Вы не можете удалять свои сообщения
Вы не можете голосовать в опросах
Вы не можете прикреплять файлы к сообщениям
Вы не можете скачивать файлы