Семейка Крудс / The Croods (Кирк де Микко / Крис Сандерс) [2013, мультфильм, комедия, приключения, семейный, BDRip-AVC] Dub + Org Eng + Sub Eng

Ответить на тему
 
Автор Сообщение

user ®

Стаж: 12 лет

Сообщений: 15145

Пост Пост: #1 от 16-Сен-2013 00:15

[Цитировать]

Семейка Крудс / The Croods Страна: США
Жанр: мультфильм, комедия, приключения, семейный
Продолжительность: 01:38:37
Год выпуска: 2013
Перевод: Профессиональный полное дублирование
Cубтитры: Английские
Режиссёр: Кирк де Микко / Крис Сандерс
Роли озвучивали: Николас Кейдж (Дмитрий Назаров), Эмма Стоун (Нюша Шурочкина), Райан Рейнольдс (Егор Дружинин), Клорис Личмен (Александра Назарова), Кларк Дьюк (Руслан Мещанов), Крис Сандерс, Кэтрин Кинер
Описание: Землетрясение уничтожило дом доисторической семьи, и теперь Крудсам придётся искать другое пристанище. А вокруг новый и опасный мир! Им на помощь приходит молодой кочевник Малой, передовые взгляды которого наталкиваются на консервативность главы семьи Груга. Но только вместе они смогут выжить и достичь своей цели…
Качество: BDRip-AVC [Blu-Ray (1080p)]
Формат: MKV
Видео: 1024x436 (2.35:1), 23.976 fps, XviD, ~2260 kbps avg, 0.211 bit/pixel
Аудио 1: 48 kHz, AC3 Dolby Digital, 3/2 (L,C,R,l,r) + LFE ch, ~448.00 kbps avg (Rus)
Аудио 2: 48 kHz, AC3 Dolby Digital, 3/2 (L,C,R,l,r) + LFE ch, ~448.00 kbps avg (Eng)
Автор: nnlabetik
Семпл

Подробные технические данные

GeneralUnique ID : 194878582856894848873528433633429547640 (0x929C3FF47DA83D33B85A2427C3F3EA78)Complete name : F:\Semejka.Kruds.2013.x264.BDRip.AVC.mkvFormat : MatroskaFormat version : Version 4 / Version 2File size : 2.17 GiBDuration : 1h 38mnOverall bit rate : 3 157 KbpsMovie name : Семейка Крудс / The Croods / 2013Encoded date : UTC 2013-09-15 16:38:08Writing application : mkvmerge v6.3.0 ('You can't stop me!') built on Jun 28 2013 20:09:41Writing library : libebml v1.3.0 + libmatroska v1.4.0
VideoID : 1Format : AVCFormat/Info : Advanced Video CodecFormat profile : High@L4.1Format settings, CABAC : YesFormat settings, ReFrames : 8 framesCodec ID : V_MPEG4/ISO/AVCDuration : 1h 38mnBit rate : 2 259 KbpsWidth : 1 024 pixelsHeight : 436 pixelsDisplay aspect ratio : 2.35:1Frame rate mode : ConstantFrame rate : 23.976 fpsColor space : YUVChroma subsampling : 4:2:0Bit depth : 8 bitsScan type : ProgressiveBits/(Pixel*Frame) : 0.211Stream size : 1.51 GiB (70%)Title : Rip by nnlabetikWriting library : x264 core 133 r2334 a3ac64bEncoding settings : cabac=1 / ref=8 / deblock=1:-2:-2 / analyse=0x3:0x113 / me=umh / subme=10 / psy=1 / psy_rd=1.00:0.00 / mixed_ref=1 / me_range=32 / chroma_me=1 / trellis=2 / 8x8dct=1 / cqm=0 / deadzone=21,11 / fast_pskip=1 / chroma_qp_offset=-2 / threads=6 / lookahead_threads=1 / sliced_threads=0 / nr=0 / decimate=1 / interlaced=0 / bluray_compat=0 / constrained_intra=0 / bframes=9 / b_pyramid=2 / b_adapt=2 / b_bias=0 / direct=3 / weightb=1 / open_gop=0 / weightp=2 / keyint=240 / keyint_min=23 / scenecut=40 / intra_refresh=0 / rc_lookahead=0 / rc=2pass / mbtree=0 / bitrate=2259 / ratetol=1.0 / qcomp=0.60 / qpmin=0 / qpmax=69 / qpstep=4 / cplxblur=20.0 / qblur=0.5 / vbv_maxrate=50000 / vbv_bufsize=62500 / nal_hrd=none / ip_ratio=1.40 / pb_ratio=1.30 / aq=1:0.80Language : EnglishDefault : YesForced : No
Audio #1ID : 2Format : AC-3Format/Info : Audio Coding 3Mode extension : CM (complete main)Format settings, Endianness : BigCodec ID : A_AC3Duration : 1h 38mnBit rate mode : ConstantBit rate : 448 KbpsChannel count : 6 channelsChannel positions : Front: L C R, Side: L R, LFESampling rate : 48.0 KHzBit depth : 16 bitsCompression mode : LossyStream size : 316 MiB (14%)Title : DubLanguage : RussianDefault : YesForced : No
Audio #2ID : 3Format : AC-3Format/Info : Audio Coding 3Mode extension : CM (complete main)Format settings, Endianness : BigCodec ID : A_AC3Duration : 1h 38mnBit rate mode : ConstantBit rate : 448 KbpsChannel count : 6 channelsChannel positions : Front: L C R, Side: L R, LFESampling rate : 48.0 KHzBit depth : 16 bitsCompression mode : LossyStream size : 316 MiB (14%)Title : OrgLanguage : EnglishDefault : NoForced : No
TextID : 4Format : UTF-8Codec ID : S_TEXT/UTF8Codec ID/Info : UTF-8 Plain TextDefault : YesForced : No
Menu00:00:00.000 : :Chapter 0100:02:34.986 : :Chapter 0200:04:51.749 : :Chapter 0300:09:01.249 : :Chapter 0400:12:21.115 : :Chapter 0500:14:04.801 : :Chapter 0600:18:33.028 : :Chapter 0700:21:56.981 : :Chapter 0800:23:24.736 : :Chapter 0900:26:49.773 : :Chapter 1000:28:37.132 : :Chapter 1100:30:25.656 : :Chapter 1200:32:48.633 : :Chapter 1300:36:03.369 : :Chapter 1400:38:33.561 : :Chapter 1500:41:34.532 : :Chapter 1600:44:38.842 : :Chapter 1700:48:02.628 : :Chapter 1800:52:10.960 : :Chapter 1900:55:17.480 : :Chapter 2001:00:14.777 : :Chapter 2101:03:58.083 : :Chapter 2201:05:48.735 : :Chapter 2301:08:44.036 : :Chapter 2401:10:47.283 : :Chapter 2501:12:37.144 : :Chapter 2601:14:01.645 : :Chapter 2701:19:48.573 : :Chapter 2801:23:09.859 : :Chapter 2901:25:16.735 : :Chapter 3001:28:04.319 : :Chapter 3101:30:02.229 : :Chapter 3201:38:36.658 : :Chapter 33

Скриншоты

Скачать

Скачать торрент! Семейка Крудс / The Croods (Кирк де Микко / Крис Сандерс) [2013, мультфильм, комедия, приключения, семейный, BDRip-AVC] Dub + Org Eng + Sub Eng

Как скачивать? · Что такое торрент? · Рейтинг и ограничения

Сайт не распространяет и не хранит электронные версии произведений, а лишь предоставляет доступ к создаваемому пользователями каталогу ссылок на торрент-файлы, которые содержат только списки хеш-сумм

[Профиль] [ЛС]
Показать сообщения:    
Ответить на тему

Текущее время: Сегодня 20:54

Часовой пояс: GMT + 4



Вы не можете начинать темы
Вы не можете отвечать на сообщения
Вы не можете редактировать свои сообщения
Вы не можете удалять свои сообщения
Вы не можете голосовать в опросах
Вы не можете прикреплять файлы к сообщениям
Вы не можете скачивать файлы