Игроки: Руки судьбы / The Gamers: Hands of Fate (Бен Добинс, Мэтт Вансил / Ben Dobyns, Matt Vancil) [2013, США, Комедия, HDRip] + Sub Rus + Original Eng

Ответить на тему
 
Автор Сообщение

user ®

Стаж: 7 лет 7 месяцев

Сообщений: 20008

Пост Пост: #1 от 16-Сен-2013 00:15

[Цитировать]

Игроки: Руки судьбы / The Gamers: Hands of Fate
Страна: США
Жанр: Комедия
Год выпуска: 2013
Продолжительность: 2:04:56
Перевод: Субтитры
Cубтитры: русские
Оригинальная аудиодорожка: английский
Режиссер: Бен Добинс, Мэтт Вансил / Ben Dobyns, Matt Vancil
В ролях: Брайан Льюис, Трин Миллер, Самара Лерман, Джесси Ли Китер
Описание: Продолжение легендарной саги об игроках. Персонажи, знакомые нам по предыдущим частям, снова играют в настольные игры, дурачатся, отрываются по-полной на GenCon и открывают для себя всю прелесть коллекционных карточных игр.
Сэмпл: http://yadi.sk/d/Q1QBXmku9H35U
Качество видео: HDRip
Формат видео: MP4
Видео: 1920x1080 (16:9), 23,976 fps, Advanced Video Codec, ~4500 kbps,
Аудио: 48 kHz, Advanced Audio Codec, 2ch, ~253 kbps
Формат субтитров: softsub (SRT)

MediaInfo

Общее
Полное имя : Y:\project GHoF\HoF.mp4
Формат : MPEG-4
Профиль формата : Base Media / Version 2
Идентификатор кодека : mp42
Размер файла : 4,14 Гбайт
Продолжительность : 2 ч. 4 м.
Режим общего битрейта : Переменный
Общий поток : 4743 Кбит/сек
Дата кодирования : UTC 2013-08-14 21:09:11
Дата пометки : UTC 2013-08-14 21:09:11
Видео
Идентификатор : 1
Формат : AVC
Формат/Информация : Advanced Video Codec
Профиль формата : High@L4.0
Параметр CABAC формата : Да
Параметр ReFrames формата : 4 кадра
Идентификатор кодека : avc1
Идентификатор кодека/Информация : Advanced Video Coding
Продолжительность : 2 ч. 4 м.
Битрейт : 4500 Кбит/сек
Ширина : 1920 пикселей
Высота : 1080 пикселей
Соотношение сторон : 16:9
Режим частоты кадров : Постоянный
Частота кадров : 23,976 кадра/сек
Цветовое пространство : YUV
Субдискретизация насыщенности : 4:2:0
Битовая глубина : 8 бит
Тип развёртки : Прогрессивная
Бит/(Пиксели*Кадры) : 0.091
Размер потока : 3,91 Гбайт (95%)
Библиотека кодирования : x264 core 129 r2245 bc13772
Настройки программы : cabac=1 / ref=3 / deblock=1:0:0 / analyse=0x3:0x113 / me=hex / subme=7 / psy=1 / psy_rd=1.00:0.00 / mixed_ref=1 / me_range=16 / chroma_me=1 / trellis=1 / 8x8dct=1 / cqm=0 / deadzone=21,11 / fast_pskip=1 / chroma_qp_offset=-2 / threads=12 / lookahead_threads=2 / sliced_threads=0 / nr=0 / decimate=1 / interlaced=0 / bluray_compat=0 / constrained_intra=0 / bframes=3 / b_pyramid=2 / b_adapt=1 / b_bias=0 / direct=1 / weightb=1 / open_gop=0 / weightp=2 / keyint=72 / keyint_min=24 / scenecut=40 / intra_refresh=0 / rc_lookahead=40 / rc=2pass / mbtree=1 / bitrate=4500 / ratetol=1.0 / qcomp=0.60 / qpmin=5 / qpmax=69 / qpstep=4 / cplxblur=20.0 / qblur=0.5 / vbv_maxrate=6750 / vbv_bufsize=22500 / nal_hrd=none / ip_ratio=1.40 / aq=1:1.00
Дата кодирования : UTC 2013-08-14 21:09:11
Дата пометки : UTC 2013-08-14 21:09:11
Аудио
Идентификатор : 2
Формат : AAC
Формат/Информация : Advanced Audio Codec
Профиль формата : LC
Идентификатор кодека : 40
Продолжительность : 2 ч. 4 м.
Продолжительность оригинала : 2 ч. 4 м.
Вид битрейта : Переменный
Битрейт : 253 Кбит/сек
Каналы : 2 канала
Расположение каналов : Front: L R
Частота : 48,0 КГц
Метод сжатия : С потерями
Задержка видео : 40 мс.
Размер потока : 226 Мбайт (5%)
Размер потока оригинала : 226 Мбайт (5%)
Дата кодирования : UTC 2013-08-14 21:09:11
Дата пометки : UTC 2013-08-14 21:09:11

Скриншот c названием фильма

Скриншоты




Образец субтитров

107
00:06:35,090 --> 00:06:38,200
Я не разделяю твою ненависть
108
00:06:38,400 --> 00:06:40,710
Тебе нравятся непредсказуемые игры
109
00:06:40,920 --> 00:06:43,120
Походи, посмотри, как играют
110
00:06:43,220 --> 00:06:45,520
Я? Я что?
111
00:06:45,620 --> 00:06:48,120
Может, и мне потратить сотни долларов на
112
00:06:48,220 --> 00:06:50,410
неинтерактивную игру без повествовательной части?
113
00:06:50,510 --> 00:06:53,370
Ух ты! Держите меня! Если что, это был сарказм
114
00:06:53,470 --> 00:06:56,720
У этой игры ноль...
115
00:06:57,770 --> 00:06:59,120
(Боже мой!)
116
00:06:59,460 --> 00:07:02,530
Эй, бородач, ты организатор?
117
00:07:04,300 --> 00:07:09,480
Эй, второй бородач! Бум! Дай карты
118
00:07:09,680 --> 00:07:11,980
О! Наш первый игрок за Холден!
119
00:07:12,080 --> 00:07:14,160
-Можно поинтересоваться, какая будет колода?
-Смесь квестов и войск
120
00:07:14,260 --> 00:07:16,170
-Класс!
-Моя особая подборка
121
00:07:16,370 --> 00:07:20,390
У меня что-то похожее, но играл за Туату,
122
00:07:20,590 --> 00:07:22,390
пока "Наследие" не разлучило нас
123
00:07:23,870 --> 00:07:25,430
Это была моя любимая колода
124
00:07:25,630 --> 00:07:29,600
-Сочувствую
-Да, после этого я бросил играть
125
00:07:29,800 --> 00:07:31,660
Неинтересно стало, понимаешь?
126
00:07:31,760 --> 00:07:35,360
-(*Кто выпустил её с кухни*)?
-Позаботься о Дандериле, хорошо?
127
00:07:35,560 --> 00:07:37,160
Будет сделано
Скачать

Скачать торрент!

Как скачивать? · Что такое торрент? · Рейтинг и ограничения

Сайт не распространяет и не хранит электронные версии произведений, а лишь предоставляет доступ к создаваемому пользователями каталогу ссылок на торрент-файлы, которые содержат только списки хеш-сумм

[Профиль] [ЛС]
Показать сообщения:    
Ответить на тему

Текущее время: Сегодня 16:18

Часовой пояс: GMT + 4



Вы не можете начинать темы
Вы не можете отвечать на сообщения
Вы не можете редактировать свои сообщения
Вы не можете удалять свои сообщения
Вы не можете голосовать в опросах
Вы не можете прикреплять файлы к сообщениям
Вы не можете скачивать файлы