Артур и месть Урдалака / Arthur et la vengeance de Maltazard / Arthur And The Revenge Of Maltazard (Люк Бессон / Luc Besson) [2009 г., мультфильм, фэнтези, семейный, BDRip-AVC] Dub + AVO (Визгунов) + Ukr + Eng + Fre + Subs (Rus, Eng, Fre)

Ответить на тему
 
Автор Сообщение

user ®

Стаж: 9 лет 8 месяцев

Сообщений: 18988

Пост Пост: #1 от 15-Сен-2013 21:05

[Цитировать]

- P R E S E N T SАртур и месть Урдалака / Arthur et la vengeance de Maltazard / Arthur And The Revenge Of Maltazard- Страна: Франция
Жанр: мультфильм, фэнтези, семейный
Продолжительность: 01:33:41
Год выпуска: 2009
Перевод 1: Профессиональный (дублированный) Студия "Пифагор"
Перевод 2: Авторский (одноголосый закадровый) Сергей Визгунов
Русские субтитры: есть-Режиссёр: Люк Бессон / Luc Besson
Роли озвучивали: Селена Гомес, Фредди Хаймор, Стэйси Фергюсон, Снуп Догг, Миа Фэрроу, Джимми Фэллон, Уилл Ай Эм, Омар Сай, Лу Рид, Логан Миллер...
Роли дублировали: Лера Лера, Андрей Григорьев-Апполонов, Тимати, Виктор Вержбицкий, Андрей Фомин, Томас Шлеккер, Василий Бочкарёв, Александр Клюквин, Любовь Германова, Василий Дахненко, Ольга Зверева и другие- | | -Описание: Артур в восторге, потому что этой ночью заканчивается десятый лунный цикл, и он, наконец, сможет вернуться в страну минипутов, чтобы воссоединиться с Селенией. В деревне минипуты приготовили в его честь роскошный банкет, а маленькая принцесса облачилась в платье из лепестков роз. Но отец Артура именно в этот долгожданный день объявляет, что их каникулы у бабушки заканчиваются. Они уже собираются уезжать, как вдруг паук кладёт в ладонь Артуру рисунок, на котором написано слово S.O.S. Сомнений нет Селении угрожает опасность!
Артур, не задумываясь, летит к ней на выручку. Даже если столкнуться с войсками Креба, нового тирана Семи Королевств, спасти Бархлюша, сражаться с крысами, лягушками и волосатыми пауками Лишь для того, чтобы, попав в деревушку минипутов, узнать, что они вовсе не просили его о помощи! Но кто же мог приготовить такую изобретательную ловушку нашему юному герою?-Доп. информация:
- За исходный французский Blu-ray Disc спасибо SJC.
- Перевод Сергея Визгунова выполнен в рамках ресурса Widescreen (Спасибо: SJC, Multmir, Кирыч, furria62).
- Звуковая дорожка с переводом С. Визгунова получена путем наложения чистого голоса на центральный канал оригинальной (английской) DTSHD-MA 5.1 дорожки - xfiles.
- За исходную украинскую дорожку "1+1" спасибо xslim (salcom).
- Работа со звуком, кодирование видео - DFCbit.
- Большое спасибо xfiles за дельные советы и всяческое содействие и поддержку.
--Сэмпл/Sample (59.2 MB, 1 минута)-Качество: BDRip-AVC
Контейнер: MKV
Видео: 1120x476 (2.353:1), 23.976 fps, AVC, ~4474 Kbps, 0.350 bits/pixel
Аудио 1: Русский, 48.0 KHz, AC3, 6 ch, 384 Kbps - Дубляж | Студия "Пифагор"
Аудио 2: Русский, 48.0 KHz, AC3 EX, 6 ch, 448 Kbps - AVO | Сергей Визгунов
Аудио 3: Украинский, 48.0 KHz, AC3, 2 ch, 192 Kbps - Канал "1+1"
Аудио 4: English, 48.0 KHz, AC3 EX, 6 ch, 448 Kbps
Аудио 5: Francais, 48.0 KHz, AC3 EX, 6 ch, 448 Kbps
Субтитры: Русские, English, Francais
Навигация по главам: есть (12 не именованных глав)

MediaInfo / x264Log

x264Log

raw [info]: 1120x476p 1:1 @ 24000/1001 fps (cfr)x264 [info]: using SAR=1/1x264 [info]: using cpu capabilities: MMX2 SSE2Fast SSSE3 FastShuffle SSE4.2x264 [info]: profile High, level 4.0x264 [info]: frame I:1473 Avg QP:17.09 size: 98734 PSNR Mean Y:46.04 U:47.65 V:48.50 Avg:46.61 Global:45.93x264 [info]: frame P:30336 Avg QP:18.55 size: 44930 PSNR Mean Y:44.75 U:46.27 V:47.41 Avg:45.31 Global:44.44x264 [info]: frame B:102961 Avg QP:20.75 size: 15880 PSNR Mean Y:43.83 U:45.51 V:47.10 Avg:44.46 Global:43.59x264 [info]: consecutive B-frames: 2.6% 1.9% 7.9% 27.8% 19.2% 36.8% 2.5% 0.4% 0.5% 0.4%x264 [info]: mb I I16..4: 7.0% 70.9% 22.2%x264 [info]: mb P I16..4: 0.8% 20.2% 3.1% P16..4: 22.3% 25.5% 16.0% 3.3% 0.4% skip: 8.4%x264 [info]: mb B I16..4: 0.2% 3.6% 0.4% B16..8: 25.9% 24.4% 6.3% direct: 7.8% skip:31.4% L0:36.1% L1:39.0% BI:24.9%x264 [info]: 8x8 transform intra:82.8% inter:55.7%x264 [info]: coded y,uvDC,uvAC intra: 93.4% 94.7% 86.7% inter: 33.7% 32.6% 17.0%x264 [info]: i16 v,h,dc,p: 46% 9% 7% 38%x264 [info]: i8 v,h,dc,ddl,ddr,vr,hd,vl,hu: 10% 9% 10% 9% 12% 12% 12% 11% 14%x264 [info]: i4 v,h,dc,ddl,ddr,vr,hd,vl,hu: 12% 8% 7% 8% 16% 13% 14% 10% 13%x264 [info]: i8c dc,h,v,p: 49% 17% 15% 20%x264 [info]: Weighted P-Frames: Y:5.8% UV:4.1%x264 [info]: ref P L0: 47.0% 13.8% 16.9% 5.7% 5.0% 3.3% 3.2% 1.7% 1.7% 1.5% 0.3% 0.0%x264 [info]: ref B L0: 81.9% 8.6% 3.5% 1.9% 1.3% 1.1% 1.0% 0.4% 0.2%x264 [info]: ref B L1: 95.7% 4.3%x264 [info]: SSIM Mean Y:0.9811065 (17.237db)x264 [info]: PSNR Mean Y:44.064 U:45.703 V:47.184 Avg:44.677 Global:43.785 kb/s:4473.89encoded 134770 frames, 3.78 fps, 4473.89 kb/s
GeneralUnique ID : 181941393595472760141519414228021423991 (0x88E0A3472EAEA9FD9E4E133B75942F77)Complete name : Arthur.II.2009.BDRip.476p.tRuAVC.&.Multfilmy.mkvFormat : MatroskaFormat version : Version 2File size : 4.19 GiBDuration : 1h 33mnOverall bit rate : 6 397 KbpsEncoded date : UTC 2012-09-19 17:00:50Writing application : mkvmerge v4.0.0 ('The Stars were mine') built on Jun 6 2010 16:18:42Writing library : libebml v1.0.0 + libmatroska v1.0.0
VideoID : 1Format : AVCFormat/Info : Advanced Video CodecFormat profile : High@L4.0Format settings, CABAC : YesFormat settings, ReFrames : 10 framesCodec ID : V_MPEG4/ISO/AVCDuration : 1h 33mnBit rate : 4 474 KbpsWidth : 1 120 pixelsHeight : 476 pixelsDisplay aspect ratio : 2.35:1Frame rate : 23.976 fpsColor space : YUVChroma subsampling : 4:2:0Bit depth : 8 bitsScan type : ProgressiveBits/(Pixel*Frame) : 0.350Stream size : 2.93 GiB (68%)Title : NTSC, 1120x476 (2.353:1), BDRip - tRuAVC & Multfilmy [DFCbit]Writing library : x264 core 125 r2208kMod d9d2288Encoding settings : cabac=1 / ref=10 / deblock=1:-1:-1 / analyse=0x3:0x133 / me=umh / subme=11 / psy=1 / fade_compensate=0.00 / psy_rd=0.60:0.00 / mixed_ref=1 / me_range=48 / chroma_me=1 / trellis=2 / 8x8dct=1 / cqm=0 / deadzone=21,11 / fast_pskip=0 / chroma_qp_offset=-2 / threads=6 / lookahead_threads=1 / sliced_threads=0 / nr=0 / decimate=1 / interlaced=0 / bluray_compat=0 / constrained_intra=0 / bframes=9 / b_pyramid=2 / b_adapt=2 / b_bias=0 / direct=1 / weightb=1 / open_gop=0 / weightp=2 / keyint=250 / keyint_min=23 / scenecut=40 / intra_refresh=0 / rc_lookahead=70 / rc=crf / mbtree=0 / crf=18.1260 / qcomp=0.80 / qpmin=0 / qpmax=69 / qpstep=4 / vbv_maxrate=25000 / vbv_bufsize=31250 / crf_max=0.0 / nal_hrd=none / ip_ratio=1.40 / pb_ratio=1.30 / aq=3:0.90Language : FrenchDefault : YesForced : NoColor primaries : BT.709-5, BT.1361, IEC 61966-2-4, SMPTE RP177Transfer characteristics : BT.709-5, BT.1361Matrix coefficients : BT.709-5, BT.1361, IEC 61966-2-4 709, SMPTE RP177
Audio #1ID : 2Format : AC-3Format/Info : Audio Coding 3Mode extension : CM (complete main)Codec ID : A_AC3Duration : 1h 33mnBit rate mode : ConstantBit rate : 384 KbpsChannel(s) : 6 channelsChannel positions : Front: L C R, Side: L R, LFESampling rate : 48.0 KHzBit depth : 16 bitsCompression mode : LossyStream size : 257 MiB (6%)Title : AC3, 6 ch, 48 kHz, 384 kbps, DubbingLanguage : RussianDefault : YesForced : No
Audio #2ID : 3Format : AC-3Format/Info : Audio Coding 3Mode extension : CM (complete main)Codec ID : A_AC3Duration : 1h 33mnBit rate mode : ConstantBit rate : 448 KbpsChannel(s) : 6 channelsChannel positions : Front: L C R, Side: L R, LFESampling rate : 48.0 KHzBit depth : 16 bitsCompression mode : LossyStream size : 300 MiB (7%)Title : AC3 EX, 6 ch, 48 kHz, 448 kbps, AVO (С. Визгунов)Language : RussianDefault : NoForced : No
Audio #3ID : 4Format : AC-3Format/Info : Audio Coding 3Mode extension : CM (complete main)Codec ID : A_AC3Duration : 1h 33mnBit rate mode : ConstantBit rate : 192 KbpsChannel(s) : 2 channelsChannel positions : Front: L RSampling rate : 48.0 KHzBit depth : 16 bitsCompression mode : LossyStream size : 129 MiB (3%)Title : AC3, 2 ch, 48 kHz, 192 kbps, [канал 1+1]Language : UkrainianDefault : NoForced : No
Audio #4ID : 5Format : AC-3Format/Info : Audio Coding 3Mode extension : CM (complete main)Codec ID : A_AC3Duration : 1h 33mnBit rate mode : ConstantBit rate : 448 KbpsChannel(s) : 6 channelsChannel positions : Front: L C R, Side: L R, LFESampling rate : 48.0 KHzBit depth : 16 bitsCompression mode : LossyStream size : 300 MiB (7%)Title : AC3 EX, 6 ch, 48 kHz, 448 kbps, OriginalLanguage : EnglishDefault : NoForced : No
Audio #5ID : 6Format : AC-3Format/Info : Audio Coding 3Mode extension : CM (complete main)Codec ID : A_AC3Duration : 1h 33mnBit rate mode : ConstantBit rate : 448 KbpsChannel(s) : 6 channelsChannel positions : Front: L C R, Side: L R, LFESampling rate : 48.0 KHzBit depth : 16 bitsCompression mode : LossyStream size : 300 MiB (7%)Title : AC3 EX, 6 ch, 48 kHz, 448 kbps, DubbingLanguage : FrenchDefault : NoForced : No
Text #1ID : 7Format : UTF-8Codec ID : S_TEXT/UTF8Codec ID/Info : UTF-8 Plain TextTitle : SRT, FullLanguage : RussianDefault : NoForced : No
Text #2ID : 8Format : UTF-8Codec ID : S_TEXT/UTF8Codec ID/Info : UTF-8 Plain TextTitle : SRT, FullLanguage : EnglishDefault : NoForced : No
Text #3ID : 9Format : UTF-8Codec ID : S_TEXT/UTF8Codec ID/Info : UTF-8 Plain TextTitle : SRT, FullLanguage : FrenchDefault : NoForced : No
Menu00:00:00.000 : en:Chapter 100:05:50.350 : en:Chapter 200:19:58.864 : en:Chapter 300:30:05.262 : en:Chapter 400:36:15.590 : en:Chapter 500:42:41.184 : en:Chapter 600:49:31.886 : en:Chapter 700:53:38.048 : en:Chapter 801:01:04.953 : en:Chapter 901:12:07.365 : en:Chapter 1001:18:31.123 : en:Chapter 1101:26:45.242 : en:Chapter 12

Скриншоты

BDRip-AVC



Source Blu-Ray


Bitrate Viewer

-Данный релиз не будет воспроизводиться на бытовых плеерах не поддерживающих MKV и H.264
Скачать

Скачать торрент!

Как скачивать? · Что такое торрент? · Рейтинг и ограничения

Сайт не распространяет и не хранит электронные версии произведений, а лишь предоставляет доступ к создаваемому пользователями каталогу ссылок на торрент-файлы, которые содержат только списки хеш-сумм

загрузка...
[Профиль] [ЛС]
Показать сообщения:    
Ответить на тему

Текущее время: Сегодня 23:02

Часовой пояс: GMT + 4



Вы не можете начинать темы
Вы не можете отвечать на сообщения
Вы не можете редактировать свои сообщения
Вы не можете удалять свои сообщения
Вы не можете голосовать в опросах
Вы не можете прикреплять файлы к сообщениям
Вы не можете скачивать файлы