Семейка Крудс / The Croods (Кирк де Микко, Крис Сандерс / Kirk De Micco, Chris Sanders) [2013 г., США, мультфильм, комедия, приключения, семейный, BDRip] Dub

Ответить на тему
 
Автор Сообщение

user ®

Стаж: 9 лет 8 месяцев

Сообщений: 18988

Пост Пост: #1 от 15-Сен-2013 21:05

[Цитировать]

Семейка КрудсThe Croods Год выпуска: 2013
Страна: США
Жанр: мультфильм, комедия, приключения, семейный
Продолжительность: 01:38:37
Перевод: Профессиональный полное дублирование
Оригинал: английский (отдельно)
Cубтитры: русские (полные по дубляжу с авторской правкой перевода от voronine), английские внешние, softsub (SRT)-Режиссёр: Кирк де Микко / Крис Сандерс-Роли озвучивали:
Николас Кейдж (Дмитрий Назаров), Эмма Стоун (Нюша Шурочкина), Райан Рейнольдс (Егор Дружинин), Клорис Личмен (Александра Назарова), Кларк Дьюк (Руслан Мещанов), Крис Сандерс, Кэтрин Кинер-Описание:
Землетрясение уничтожило дом доисторической семьи, и теперь Крудсам придётся искать другое пристанище. А вокруг новый и опасный мир! Им на помощь приходит молодой кочевник Малой, передовые взгляды которого наталкиваются на консервативность главы семьи Груга. Но только вместе они смогут выжить и достичь своей цели…-
  • Первый фильм студии DreamWorks Animation, дистрибьютором которого стала компания 20th Century Fox.
  • В дебютный уик-энд (22.03—24.03) в США «Семейка Крудс» предварительно заработала 63,3 млн долларов на 47 территориях.
  • 17 апреля 2013 года, было объявлено, что DreamWorks Animation приступила к разработке сиквела к фильму с Сандерсом и ДеМикко. Также планируется мультсериал про героев мультфильма.
  • Саундтрек к мультфильму «Семейка Крудс» был создан композитором Аланом Сильвестри.
  • Одним из режиссёров и соавторов сценария мультфильма стал Крис Сандерс, ранее работавший над лентами «Лило и Стич», «Мулан» и «Как приручить дракона».
  • Слоган «Если они не эволюционируют, то станут историей».

-
-IMDB: 7.3/10 (41 080 votes)
Кинопоиск: 7.869 (18 997 )--Сэмпл--Качество видео: BDRip исходник BDRemux 1080p/HDClub
Формат видео: AVI
Видео кодек: XviD
Аудио кодек: АС3
Видео: 720x304 (2.37:1), 23.976 fps, XviD, ~1658 kbps avg, 0.32 bit/pixel
Аудио 1: 48 kHz, AC3 Dolby Digital, 3/2 (L,C,R,l,r) + LFE ch, ~448.00 kbps avg дубляж
Аудио 2: 48 kHz, AC3 Dolby Digital, 3/2 (L,C,R,l,r) + LFE ch, ~448.00 kbps avg оригинал (отдельно)

MI

General
Complete name : D:\Semejka.Kruds.2013.BDRip.avi
Format : AVI
Format/Info : Audio Video Interleave
File size : 1.46 GiB
Duration : 1h 38mn
Overall bit rate : 2 116 Kbps
Writing application : VirtualDubMod 1.5.10.3 (build 2550/release)
Writing library : VirtualDubMod build 2550/release
Video
ID : 0
Format : MPEG-4 Visual
Format profile : Advanced Simple@L5
Format settings, BVOP : 1
Format settings, QPel : No
Format settings, GMC : No warppoints
Format settings, Matrix : Custom
Codec ID : XVID
Codec ID/Hint : XviD
Duration : 1h 38mn
Bit rate : 1 658 Kbps
Width : 720 pixels
Height : 304 pixels
Display aspect ratio : 2.35:1
Frame rate : 23.976 fps
Color space : YUV
Chroma subsampling : 4:2:0
Bit depth : 8 bits
Scan type : Progressive
Compression mode : Lossy
Bits/(Pixel*Frame) : 0.316
Stream size : 1.14 GiB (78%)
Writing library : XviD 64
Audio
ID : 1
Format : AC-3
Format/Info : Audio Coding 3
Mode extension : CM (complete main)
Codec ID : 2000
Duration : 1h 38mn
Bit rate mode : Constant
Bit rate : 448 Kbps
Channel(s) : 6 channels
Channel positions : Front: L C R, Side: L R, LFE
Sampling rate : 48.0 KHz
Bit depth : 16 bits
Compression mode : Lossy
Stream size : 316 MiB (21%)
Alignment : Split accross interleaves
Interleave, duration : 42 ms (1.00 video frame)
Interleave, preload duration : 500 ms

Скриншоты




Скачать

Скачать торрент!

Как скачивать? · Что такое торрент? · Рейтинг и ограничения

Сайт не распространяет и не хранит электронные версии произведений, а лишь предоставляет доступ к создаваемому пользователями каталогу ссылок на торрент-файлы, которые содержат только списки хеш-сумм

загрузка...
[Профиль] [ЛС]
Показать сообщения:    
Ответить на тему

Текущее время: Сегодня 19:18

Часовой пояс: GMT + 4



Вы не можете начинать темы
Вы не можете отвечать на сообщения
Вы не можете редактировать свои сообщения
Вы не можете удалять свои сообщения
Вы не можете голосовать в опросах
Вы не можете прикреплять файлы к сообщениям
Вы не можете скачивать файлы