Икар и мудрецы (Фёдор Хитрук) [1976 г., Мультфильм, притча, короткометражка, SATRip]

Ответить на тему
 
Автор Сообщение

user ®

Стаж: 7 лет 7 месяцев

Сообщений: 20008

Пост Пост: #1 от 15-Сен-2013 21:05

[Цитировать]

Икар и мудрецыСтрана: СССР
Жанр: Мультфильм, притча, короткометражка
Продолжительность: 00:07:41
Год выпуска: 1976
Выпущено: «Союзмультфильм»
Режиссёр: Фёдор Хитрук
Русские субтитры: нетОписание:Притча о житейской мудрости и "безумстве" храбрых, которые готовы рисковать жизнью ради новых открытий.
В античном обществе жизнь течёт спокойно и неспешно. Каждый нашёл уже своё место в жизни. Люди посвящают досуг философским беседам — о смысле бытия и прочем. Но среди них живёт чудак — Икар, который пытается воплотить в жизнь безумную, с точки зрения прогрессивного античного общества, идею: научиться летать подобно птицам.
Однако все его попытки кончаются падением с небес на землю. На каждое такое падение очередной мудрец выдаёт неоспоримую истину, например: «Quod licet Jovi, non licet bovi» («Что дозволено Юпитеру, то не дозволено быку»)…
Но однажды всё-таки произошло чудо!..
И мир обогатился ещё одной истиной.

Латинские изречения, использованные в мультфильме:

[ в ы п р а в л е н ы тиражируемые в сети ошибки]
Quod licet Jovi, non licet bovi — пер. «Что дозволено Юпитеру — не дозволено быку».
Если нечто разрешено человеку или группе людей, то оно совершенно необязательно разрешено всем остальным, то есть постулируется наличие двойных стандартов.
Авторство фразы приписывается Теренцию. Фраза содержит намёк на миф о похищении Европы Зевсом (Юпитером), принявшим облик быка.
Pes sic tendatur ne lodix protereatur — пер. «По одёжке протягивай ножки».
Festina lente — пер. «Поспешай медленно» (Тише едешь — дальше будешь).
Mensura omnium rerum optima — пер. «Есть мера для всего».
Est avis in dextra (melior quam quattuor extra) — пер. «Лучше синица в руке (чем журавль вдалеке)».
Homo proponit, sed Deus disponit — пер. «Человек предполагает, а Бог располагает» («Всяк сверчок знай свой шесток»).
Ne sutor supra crepidam (judicet) — пер. «Сапожник, (суди) не выше сапога».
Латинская поговорка: "Сапожник знай свои колодки", т. е. не рассуждай о вещах, которых не понимаешь; по Плинию ("Historia naturalis", 35, 36), изречение художника Апеллеса, сказанное им в адрес сапожника, критиковавшего его картину.
Via trita via tuta — пер. «Проторённый путь безопасен» (Выше головы не прыгнешь).
Quo altior gradus tanto profundior casus — пер. «Чем выше поднимаешься, тем глубже падать».
Bene qui stat non moveatur — пер. «Кто хорошо стоит, тому не нужно двигаться» (надпись на памятнике Икару).

Режиссёр и команда

Режиссёр Фёдор Хитрук
сценарист: Фёдор Хитрук
художники-постановщики: Владимир Зуйков, Эдуард Назаров
аниматоры: Александр Панов, Виолетта Колесникова, Татьяна Померанцева, Владимир Пальчиков, Юрий Кузюрин, Дмитрий Куликов, Александр Горленко
композитор: Шандор Каллош
оператор: Михаил Друян
звукооператор: Владимир Кутузов
редактор: Аркадий Снесарев
монтажёр: Изабелла Герасимова
Текст читает: Яков Смоленский
Качество: SATRip
Формат: AVI
Видео: 720x544 (1.32:1), 25 fps, XviD build 64 ~2377 kbps avg, 0.24 bit/pixel
Аудио: 48 kHz, AC3 Dolby Digital, 2/0 (L,R) ch, ~192 kbps
Субтитры: отсутствуют

Подробные технические данные

ОбщееПолное имя : D:\Мульты\Ikar_i_mudretzy_(SATRip).aviФормат : AVIФормат/Информация : Audio Video InterleaveРазмер файла : 142 МбайтПродолжительность : 7 м. 41 с.Общий поток : 2579 Кбит/секПрограмма кодирования : VirtualDubMod 1.5.10.2 (build 2540/release)Библиотека кодирования : VirtualDubMod build 2540/release
ВидеоИдентификатор : 0Формат : MPEG-4 VisualПрофиль формата : Advanced Simple@L5Параметр BVOP формата : 2Параметр QPel формата : НетПараметр GMC формата : Без точки переходаПараметр матрицы формата : ВыборочнаяИдентификатор кодека : XVIDИдентификатор кодека/Подсказка : XviDПродолжительность : 7 м. 41 с.Битрейт : 2377 Кбит/секШирина : 720 пикселейВысота : 544 пикселяСоотношение сторон : 4:3Частота кадров : 25,000 кадров/секЦветовое пространство : YUVСубдискретизация насыщенности : 4:2:0Битовая глубина : 8 битТип развёртки : ПрогрессивнаяМетод сжатия : С потерямиБит/(Пиксели*Кадры) : 0.243Размер потока : 131 Мбайт (92%)Библиотека кодирования : XviD 64
АудиоИдентификатор : 1Формат : AC-3Формат/Информация : Audio Coding 3Расширение режима : CM (complete main)Идентификатор кодека : 2000Продолжительность : 7 м. 41 с.Вид битрейта : ПостоянныйБитрейт : 192 Кбит/секКаналы : 2 каналаРасположение каналов : Front: L RЧастота : 48,0 КГцБитовая глубина : 16 битМетод сжатия : С потерямиРазмер потока : 10,6 Мбайт (7%)Выравнивание : Разделение по промежуткамПродолжительность промежутка : 40 мс. (1,00 видеокадр)Время предзагрузки промежутка : 500 мс.

Скриншоты

Скачать

Скачать торрент!

Как скачивать? · Что такое торрент? · Рейтинг и ограничения

Сайт не распространяет и не хранит электронные версии произведений, а лишь предоставляет доступ к создаваемому пользователями каталогу ссылок на торрент-файлы, которые содержат только списки хеш-сумм

[Профиль] [ЛС]
Показать сообщения:    
Ответить на тему

Текущее время: Сегодня 02:14

Часовой пояс: GMT + 4



Вы не можете начинать темы
Вы не можете отвечать на сообщения
Вы не можете редактировать свои сообщения
Вы не можете удалять свои сообщения
Вы не можете голосовать в опросах
Вы не можете прикреплять файлы к сообщениям
Вы не можете скачивать файлы