Апокалипсис сегодня / Apocalypse Now (Френсис Форд Коппола / Francis Ford Coppola) [1979 г., военная драма, BDRip 720p] [Redux version]

Ответить на тему
 
Автор Сообщение

user ®

Стаж: 7 лет 7 месяцев

Сообщений: 20008

Пост Пост: #1 от 20-Дек-2009 01:56

[Цитировать]

Апокалипсис сегодня / Apocalypse Now
Год выпуска: 1979
Страна: США
Жанр: Военная драма
Продолжительность: 03:16:09
Перевод:
Авторский одноголосый (Дмитрий Пучков aka Гоблин) в переводе присутствует ненормативная лексика
Профессиональный (многоголосый, закадровый) (с лицензии СОЮЗ Видео)
Профессиональный (многоголосый, закадровый) (Киномания) отдельным файлом
Профессиональный (многоголосый, закадровый) (Позитив) отдельным файлом]
Русские субтитры: есть
Режиссер: Френсис Форд Коппола
В ролях: Марлон Брандо, Мартин Шин, Роберт Дювалл, Фредерик Форрест, Сэм Боттомс, Лоренс Фишбёрн, Альберт Холл, Харрисон Форд, Деннис Хоппер, Г.Д. Спрэдлин
Описание: Во время войны во Вьетнаме спецагент отправляется вверх по реке в Камбоджу с приказом найти и убить полусумасшедшего полковника, создавшего в отдаленном районе нечто вроде собственного королевства насилия. По пути мы видим почти сюрреалистический мир ужасов войны.
Доп. информация:

User Rating: 8.6/10 (175,461 votes)
Top 250: #37
Награды:
Оскар, 1980 год
Победитель:
Лучшая работа оператора
Лучший звук
Номинации:
Лучший фильм
Лучшая мужская роль второго плана (Роберт Дювалл)
Лучший режиссер (Френсис Форд Коппола)
Лучший адаптированный сценарий
Лучшие декорации
Лучший монтаж
Золотой глобус, 1980 год
Победитель:
Лучшая мужская роль второго плана (Роберт Дювалл)
Лучший режиссер (Френсис Форд Коппола)
Лучший саундтрек
Номинации:
Лучший фильм (драма)
Британская академия, 1980 год
Победитель:
Лучшая мужская роль второго плана (Роберт Дювалл)
Лучший режиссер (Френсис Форд Коппола)
Номинации:
Лучший фильм
Лучшая мужская роль (Мартин Шин)
Лучшая работа оператора
Лучший саундтрек
Лучший монтаж
Лучшая работа художника-постановщика
Премия имени Энтони Эскуита за достижения в создании музыки к фильму
Качество: BDRip
Формат: MKV
Видео кодек: H.264
Аудио кодек: DTS, AC3
Видео: 1280x544, 4290 kbps, 23.976 fps
Аудио1: Русский DTS 5.1, 48 KHz, 1536 kbps авторский одноголосый (Дмитрий Пучков aka Гоблин)*
Аудио2: Русский AC3 5.1, 48 KHz, 384 kbps профессиональный (многоголосый, закадровый) (с лицензии СОЮЗ Видео)
Аудио3: Русский AC3 5.1, 48 KHz, 448 kbps профессиональный (многоголосый, закадровый) (Киномания) отдельным файлом
Аудио4: Русский AC3 5.1, 48 KHz, 384 kbps профессиональный (многоголосый, закадровый) (Позитив) отдельным файлом
Аудио5: Английский DTS 5.1, 48 KHz, 1536 kbps
Аудио6: Английский AC3 2.0, 48 KHz, 224 kbps (комментарии режиссёра) отдельным файлом
Субтитры: Русские (СОЮЗ Видео), английские, английские (для плохослышащих)
* - дорожка сделана наложением чистого голоса на центральный канал английского DTS-HD
Скриншоты:







MediaInfo

General
Complete name : Apocalypse Now.Redux.1979.BD.Rip.720p.h264.2xRus.Eng.mkv
Format : Matroska
File size : 10.5 GiB
Duration : 3h 16mn
Overall bit rate : 7 696 Kbps
Encoded date : UTC 2010-10-28 18:10:28
Writing application : mkvmerge v3.4.0 ('Rapunzel') built on May 15 2010 09:38:20
Writing library : libebml v0.8.0 + libmatroska v0.9.0
Video
ID : 1
Format : AVC
Format/Info : Advanced Video Codec
Format profile : High@L4.1
Format settings, CABAC : Yes
Format settings, ReFrames : 11 frames
Muxing mode : Container profile=Unknown@4.1
Codec ID : V_MPEG4/ISO/AVC
Duration : 3h 16mn
Bit rate : 4 139 Kbps
Nominal bit rate : 4 290 Kbps
Width : 1 280 pixels
Height : 544 pixels
Display aspect ratio : 2.35:1
Frame rate : 23.976 fps
Resolution : 8 bits
Colorimetry : 4:2:0
Scan type : Progressive
Bits/(Pixel*Frame) : 0.248
Stream size : 5.67 GiB (54%)
Writing library : x264 core 106 r1732 b20059a
Encoding settings : cabac=1 / ref=11 / deblock=1:-3:-3 / analyse=0x3:0x113 / me=umh / subme=10 / psy=1 / psy_rd=1.00:0.00 / mixed_ref=1 / me_range=32 / chroma_me=1 / trellis=2 / 8x8dct=1 / cqm=0 / deadzone=21,11 / fast_pskip=0 / chroma_qp_offset=-2 / threads=6 / sliced_threads=0 / nr=0 / decimate=0 / interlaced=0 / constrained_intra=0 / bframes=12 / b_pyramid=2 / b_adapt=2 / b_bias=0 / direct=3 / weightb=1 / open_gop=0 / weightp=2 / keyint=250 / keyint_min=23 / scenecut=40 / intra_refresh=0 / rc=2pass / mbtree=0 / bitrate=4290 / ratetol=1.0 / qcomp=0.60 / qpmin=10 / qpmax=51 / qpstep=4 / cplxblur=20.0 / qblur=0.5 / ip_ratio=1.40 / pb_ratio=1.30 / aq=1:0.50
Language : English
Audio #1
ID : 2
Format : DTS
Format/Info : Digital Theater Systems
Codec ID : A_DTS
Duration : 3h 16mn
Bit rate mode : Constant
Bit rate : 1 510 Kbps
Channel(s) : 6 channels
Channel positions : Front: L C R, Side: L R, LFE
Sampling rate : 48.0 KHz
Resolution : 24 bits
Stream size : 2.07 GiB (20%)
Title : AVO Goblin DTS 5.1 1536 kbps
Language : Russian
Audio #2
ID : 3
Format : AC-3
Format/Info : Audio Coding 3
Format_Settings_ModeExtension : CM (complete main)
Codec ID : A_AC3
Duration : 3h 16mn
Bit rate mode : Constant
Bit rate : 384 Kbps
Channel(s) : 6 channels
Channel positions : Front: L C R, Side: L R, LFE
Sampling rate : 48.0 KHz
Stream size : 539 MiB (5%)
Title : MVO Soyuz (License) AC3 5.1 384 kbps
Language : Russian
Audio #3
ID : 4
Format : DTS
Format/Info : Digital Theater Systems
Codec ID : A_DTS
Duration : 3h 16mn
Bit rate mode : Constant
Bit rate : 1 510 Kbps
Channel(s) : 6 channels
Channel positions : Front: L C R, Side: L R, LFE
Sampling rate : 48.0 KHz
Resolution : 24 bits
Stream size : 2.07 GiB (20%)
Title : DTS 5.1 1536 kbps
Language : English
Text #1
ID : 5
Format : UTF-8
Codec ID : S_TEXT/UTF8
Codec ID/Info : UTF-8 Plain Text
Title : Soyuz (License)
Language : Russian
Text #2
ID : 6
Format : UTF-8
Codec ID : S_TEXT/UTF8
Codec ID/Info : UTF-8 Plain Text
Language : English
Text #3
ID : 7
Format : UTF-8
Codec ID : S_TEXT/UTF8
Codec ID/Info : UTF-8 Plain Text
Title : SDH
Language : English
Menu
00:00:00.000 : en:1. Waiting in Saigon
00:09:25.273 : en:2. Intelligence Compound
00:20:24.432 : en:3. Willard Meets PBR Crew
00:24:10.866 : en:4. Search and Destroy
00:31:15.123 : en:5. Beach Party
00:34:11.383 : en:6. Helicopter Attack
00:45:03.034 : en:7. Col. Kilgore Goes Surfing
00:52:05.664 : en:8. The Tiger in the Jungle
01:03:27.762 : en:9. Entertaining the Boys
01:17:10.751 : en:10. Kurtz Dossier
01:34:19.404 : en:11. Sampan Massacre
01:39:37.763 : en:12. Do Lung Bridge
01:49:20.721 : en:13. Mr. Clean's Death
01:55:02.771 : en:14. Arrow Attack
02:27:41.102 : en:15. Kurtz Compound
02:36:25.668 : en:16. Interrogation
02:45:19.868 : en:17. Chef Decapitated
03:03:10.563 : en:18. Caribou Sacrifice
03:10:11.025 : en:19. Ending

x264log

---[NoImage] avs [info]: 1280x544p 1:1 @ 24000/1001 fps (cfr)
---[NoImage] x264 [info]: using SAR=1/1
---[NoImage] x264 [info]: using cpu capabilities: MMX2 SSE2Fast SSSE3 FastShuffle SSE4.1 Cache64
---[NoImage] x264 [info]: profile High, level 4.1
---[NoImage] x264 [info]: frame I:1611 Avg QP:15.17 size: 91534
---[NoImage] x264 [info]: frame P:58057 Avg QP:17.22 size: 42161
---[NoImage] x264 [info]: frame B:222527 Avg QP:19.56 size: 16699

---[NoImage] x264 [info]: consecutive B-frames: 0.7% 1.0% 5.8% 21.4% 19.0% 45.5% 4.1% 1.0% 0.5% 0.3% 0.2% 0.3% 0.2%
---[NoImage] x264 [info]: mb I I16..4: 2.9% 86.4% 10.6%
---[NoImage] x264 [info]: mb P I16..4: 0.8% 12.6% 1.0% P16..4: 35.8% 31.1% 16.4% 0.0% 0.0% skip: 2.3%
---[NoImage] x264 [info]: mb B I16..4: 0.0% 0.7% 0.1% B16..8: 41.6% 15.6% 4.4% direct:10.1% skip:27.4% L0:44.5% L1:41.7% BI:13.8%
---[NoImage] x264 [info]: 8x8 transform intra:86.9% inter:65.7%
---[NoImage] x264 [info]: direct mvs spatial:99.2% temporal:0.8%
---[NoImage] x264 [info]: coded y,uvDC,uvAC intra: 92.9% 83.2% 61.4% inter: 41.6% 31.4% 10.2%
---[NoImage] x264 [info]: i16 v,h,dc,p: 41% 11% 13% 35%
---[NoImage] x264 [info]: i8 v,h,dc,ddl,ddr,vr,hd,vl,hu: 8% 9% 6% 10% 14% 13% 14% 12% 14%
---[NoImage] x264 [info]: i4 v,h,dc,ddl,ddr,vr,hd,vl,hu: 7% 8% 3% 10% 16% 14% 16% 12% 15%
---[NoImage] x264 [info]: i8c dc,h,v,p: 48% 21% 16% 15%
---[NoImage] x264 [info]: Weighted P-Frames: Y:19.1%
---[NoImage] x264 [info]: ref P L0: 40.8% 7.9% 16.5% 8.8% 6.7% 5.3% 4.5% 2.9% 2.4% 2.1% 1.6% 0.4% 0.0%
---[NoImage] x264 [info]: ref B L0: 68.5% 12.6% 6.4% 3.6% 2.7% 2.2% 1.8% 1.1% 0.6% 0.3%
---[NoImage] x264 [info]: ref B L1: 92.6% 7.4%
---[NoImage] x264 [info]: kb/s:4289.68
Скачать

Скачать торрент!

Как скачивать? · Что такое торрент? · Рейтинг и ограничения

Сайт не распространяет и не хранит электронные версии произведений, а лишь предоставляет доступ к создаваемому пользователями каталогу ссылок на торрент-файлы, которые содержат только списки хеш-сумм

[Профиль] [ЛС]
Показать сообщения:    
Ответить на тему

Текущее время: Сегодня 07:57

Часовой пояс: GMT + 4



Вы не можете начинать темы
Вы не можете отвечать на сообщения
Вы не можете редактировать свои сообщения
Вы не можете удалять свои сообщения
Вы не можете голосовать в опросах
Вы не можете прикреплять файлы к сообщениям
Вы не можете скачивать файлы