Остров везения (Кирилл Козлов) [2013, Комедия, DVDRip]

Ответить на тему
 
Автор Сообщение

user ®

Стаж: 7 лет 7 месяцев

Сообщений: 20008

Пост Пост: #1 от 07-Янв-2014 14:10

[Цитировать]

Остров везения
Жанр: Комедия
Год выпуска: 2013
Продолжительность: 01:18:47
Режиссёр: Кирилл Козлов
В ролях: Роман Юнусов, Светлана Ходченкова, Анна Хилькевич, Агния Дитковските, Алексей Чумаков, Татьяна Орлова, Даша Астафьева, Юлия Гришина, Мария Кравцова, Александр Сазонов
Описание: Звезда публики, и популярный телеведущий Рома, должен вести шоу, где сражаются красотки за корону, в конкурсе красоты. Они отправляются в круиз на роскошном лайнере. Он в окружении полураздетых богинь, они готовы на все, ради победы, о чем еще можно мечтать. Но так получилось, что наш герой оказался на экзотическом и безлюдном острове с тремя конкурсантами. Поняв что ему придется не сладко, он придумывает легенду, что все что происходит это часть шоу, повсюду размещены скрытые камеры, и это все транслируется на одном из популярных телеканалов, девушки должны исполнять любые его желания. Ему чертовски повезло, они в это поверили. Рома понимает, что в скором времени девушки раскусят его, пока они соревнуются он ищет спасительный путь с острова.
Сэмпл: http://sendfile.su/918902
Качество видео: DVDRip
Формат видео: AVI
Видео: XviD, 2163 кбит/с, 720x304
Аудио: AC3, 2 ch, 384 Кбит/с

MediaInfo

E:\Остров везения\Ostrov.vezenja.2013.O.DVDRip.1400MB-TST.avi
General
Complete name : E:\Остров везения\Ostrov.vezenja.2013.O.DVDRip.1400MB-TST.avi
Format : AVI
Format/Info : Audio Video Interleave
File size : 1.37 GiB
Duration : 1h 16mn
Overall bit rate : 2 556 Kbps
Writing application : VirtualDubMod 1.5.10.2 (build 2540/release)
Writing library : VirtualDubMod build 2540/release
Video #0
ID : 0
Format : MPEG-4 Visual
Format profile : Advanced Simple@L5
Format settings, BVOP : 1
Format settings, QPel : No
Format settings, GMC : No warppoints
Format settings, Matrix : Default (MPEG)
Codec ID : XVID
Codec ID/Hint : XviD
Duration : 1h 16mn
Bit rate : 2 163 Kbps
Width : 720 pixels
Height : 304 pixels
Display aspect ratio : 2.35:1
Frame rate : 25.000 fps
Color space : YUV
Chroma subsampling : 4:2:0
Bit depth : 8 bits
Scan type : Progressive
Compression mode : Lossy
Bits/(Pixel*Frame) : 0.395
Stream size : 1.16 GiB (85%)
Writing library : XviD 1.2.1 (UTC 2008-12-04)
Audio #1
ID : 1
Format : AC-3
Format/Info : Audio Coding 3
Mode extension : CM (complete main)
Codec ID : 2000
Duration : 1h 16mn
Bit rate mode : Constant
Bit rate : 384 Kbps
Channel(s) : 6 channels
Channel positions : Front: L C R, Side: L R, LFE
Sampling rate : 48.0 KHz
Bit depth : 16 bits
Compression mode : Lossy
Stream size : 210 MiB (15%)
Alignment : Split accross interleaves
Interleave, duration : 40 ms (1.00 video frame)
Interleave, preload duration : 500 ms

Скриншот c названием фильма

Скриншоты

Скачать

Скачать торрент!

Как скачивать? · Что такое торрент? · Рейтинг и ограничения

Сайт не распространяет и не хранит электронные версии произведений, а лишь предоставляет доступ к создаваемому пользователями каталогу ссылок на торрент-файлы, которые содержат только списки хеш-сумм

[Профиль] [ЛС]
Показать сообщения:    
Ответить на тему

Текущее время: Сегодня 17:31

Часовой пояс: GMT + 4



Вы не можете начинать темы
Вы не можете отвечать на сообщения
Вы не можете редактировать свои сообщения
Вы не можете удалять свои сообщения
Вы не можете голосовать в опросах
Вы не можете прикреплять файлы к сообщениям
Вы не можете скачивать файлы