(Bossa Nova, Big Band, Latin Jazz, Lounge) De Phazz & The Radio Bigband Frankfurt - Big - 2009, FLAC (image+.cue), lossless

Ответить на тему
 
Автор Сообщение

user ®

Стаж: 10 лет

Сообщений: 18988

Пост Пост: #1 от 01-Ноя-2009 05:39

[Цитировать]

De Phazz & The Radio Bigband Frankfurt - Big
Жанр: Bossa Nova, Big Band, Latin Jazz, Lounge
Год выпуска диска: 2009
Производитель диска: Germany
Аудио кодек: FLAC
Тип рипа: image+.cue
Битрейт аудио: lossless
Продолжительность: 55:54
Трэклист:
01. Mambo Craze
02. Jazz Music
03. Belle De Jour
04. Jim The Jinn
05. Jeunesse Dorée
06. Death By Chocolate
07. Something Special
08. Excoursion En Mer
09. Preachin' To The Choir
10. Dummes Spiel
11. Heart Gallery
12. Jeunesse Dorée (Dub-Mix)

Отчёт EAC

Exact Audio Copy V0.99 prebeta 4 from 23. January 2008
EAC extraction logfile from 18. February 2009, 0:22
De-Phazz & The Radio Bigband Frankfurt / Big
Used drive : PIONEER DVD-RW DVR-111D Adapter: 0 ID: 0
Read mode : Secure
Utilize accurate stream : Yes
Defeat audio cache : Yes
Make use of C2 pointers : No
Read offset correction : 48
Overread into Lead-In and Lead-Out : No
Fill up missing offset samples with silence : Yes
Delete leading and trailing silent blocks : No
Null samples used in CRC calculations : Yes
Used interface : Installed external ASPI interface
Used output format : Internal WAV Routines
Sample format : 44.100 Hz; 16 Bit; Stereo
TOC of the extracted CD
Track | Start | Length | Start sector | End sector
---------------------------------------------------------
1 | 0:00.00 | 3:59.24 | 0 | 17948
2 | 3:59.24 | 4:15.10 | 17949 | 37083
3 | 8:14.34 | 3:57.51 | 37084 | 54909
4 | 12:12.10 | 3:19.22 | 54910 | 69856
5 | 15:31.32 | 5:19.31 | 69857 | 93812
6 | 20:50.63 | 6:23.45 | 93813 | 122582
7 | 27:14.33 | 4:16.17 | 122583 | 141799
8 | 31:30.50 | 5:55.74 | 141800 | 168498
9 | 37:26.49 | 4:52.53 | 168499 | 190451
10 | 42:19.27 | 4:15.18 | 190452 | 209594
11 | 46:34.45 | 4:09.29 | 209595 | 228298
12 | 50:43.74 | 5:10.33 | 228299 | 251581
Range status and errors
Selected range
Filename G:\Temp\CD\De-Phazz & The Radio Bigband Frankfurt - Big (2009)\De-Phazz & The Radio Bigband Frankfurt - Big.wav
Peak level 100.0 %
Range quality 100.0 %
Copy CRC 1957034B
Copy OK
No errors occurred
End of status report

Отчёт Audiochecker

AUDIOCHECKER v2.0 beta (build 457)
~~~~~~~~~~~~~~~~~~~~~~~~~~~~~~~~~~
-=== DO NOT EDIT THIS FILE! ===-
Path: ...\DePhazz & The Radio Bigband Frankfurt -2009- Big
1 -=- De-Phazz & The Radio Bigband Frankfurt - Big.wav -=- CDDA (100%)
176865780
Доп. информация: Наиболее свежий (на сегодня) альбом.
Скачать

Скачать торрент!

Как скачивать? · Что такое торрент? · Рейтинг и ограничения

Сайт не распространяет и не хранит электронные версии произведений, а лишь предоставляет доступ к создаваемому пользователями каталогу ссылок на торрент-файлы, которые содержат только списки хеш-сумм

загрузка...
[Профиль] [ЛС]
Показать сообщения:    
Ответить на тему

Текущее время: Сегодня 22:51

Часовой пояс: GMT + 4



Вы не можете начинать темы
Вы не можете отвечать на сообщения
Вы не можете редактировать свои сообщения
Вы не можете удалять свои сообщения
Вы не можете голосовать в опросах
Вы не можете прикреплять файлы к сообщениям
Вы не можете скачивать файлы