Люди-тени / Дверь / Shadow people / The Door (Мэттью Арнольд / Matthew Arnold) [2013 г., США, мистика, триллер, HDRip] MVO

Ответить на тему
 
Автор Сообщение

user ®

Стаж: 7 лет 7 месяцев

Сообщений: 20008

Пост Пост: #1 от 21-Дек-2013 20:55

[Цитировать]

-Люди-тени / Дверь / Shadow people / The Door--Год выпуска: 2013
Страна: США
Жанр: мистика, триллер-Продолжительность: 01:28:56
Перевод: Профессиональный (многоголосый закадровый)
Субтитры: нет--Режиссер: Мэттью Арнольд / Matthew Arnold--В ролях:
Даллас Робертс, Элисон Иствуд, Энн Дудек, Мария Боннер, Мэтти Липтак, Кристофер Берри, Джонатан Барон, Тони Шина, Ричи Монтгомери, Марко Ст. Джон
--Описание:
Ведущий радиошоу Чарли Кроу узнает в прямом эфире от одного из радиослушателей о неких Людях Теней, которые преследуют своих жертв и стали причиной уже многих смертей. Чарли берется расследовать так называемые «встречи» с таинственными созданиями и вскоре сам начинает ИХ видеть…-Фильм основан на реальном случае загадочных смертей и вирусном ролике "Изучение сна GR16-1971"
Фильм содержит документальные съёмки и интервью с реальными людьми.
--Доп. информация:-
Сэмпл Рип совместим с бытовыми DVD-проигрывателями.--Качество видео: HDRip
Формат видео: AVI
Видео: XviD; 704 х 288 (2.39:1); 1032 kbps; 23.976 fps; 0.212 bpp
Аудио: MPEG-1 Audio Layer 3 (MP3); 48.0 KHz; 128 Kbps; CBR; 2 ch-

Скриншоты

Скриншот с названием



MediaInfo

General
Complete name : \Ludi-teny_(2013).HDRip.XviD.mp3-[All.Films][RG].avi
Format : AVI
Format/Info : Audio Video Interleave
File size : 744 MiB
Duration : 1h 28mn
Overall bit rate : 1 169 Kbps
Movie name : Люди-тени / Дверь / Shadow people / The Door (2013) HDRip [All.Films][RG]
Director : /
Writing application : VirtualDubMod 1.5.10.3 | www.virtualdub-fr.org || (build 2550/release)
Video
ID : 0
Format : MPEG-4 Visual
Format profile : Advanced Simple@L5
Format settings, BVOP : 2
Format settings, QPel : No
Format settings, GMC : No warppoints
Format settings, Matrix : Custom
Codec ID : XVID
Codec ID/Hint : XviD
Duration : 1h 28mn
Bit rate : 1 032 Kbps
Width : 704 pixels
Height : 288 pixels
Display aspect ratio : 2.40:1
Frame rate : 23.976 fps
Color space : YUV
Chroma subsampling : 4:2:0
Bit depth : 8 bits
Scan type : Progressive
Compression mode : Lossy
Bits/(Pixel*Frame) : 0.212
Stream size : 656 MiB (88%)
Writing library : XviD 1.2.1 (UTC 2008-12-04)
Audio
ID : 1
Format : MPEG Audio
Format version : Version 1
Format profile : Layer 3
Codec ID : 55
Codec ID/Hint : MP3
Duration : 1h 28mn
Bit rate mode : Constant
Bit rate : 128 Kbps
Channel(s) : 2 channels
Sampling rate : 48.0 KHz
Compression mode : Lossy
Stream size : 81.4 MiB (11%)
Alignment : Aligned on interleaves
Interleave, duration : 42 ms (1.00 video frame)
Interleave, preload duration : 504 ms
Writing library : LAME3.99r
Encoding settings : -m s -V 4 -q 0 -lowpass 17 -b 128
Скачать

Скачать торрент!

Как скачивать? · Что такое торрент? · Рейтинг и ограничения

Сайт не распространяет и не хранит электронные версии произведений, а лишь предоставляет доступ к создаваемому пользователями каталогу ссылок на торрент-файлы, которые содержат только списки хеш-сумм

[Профиль] [ЛС]
Показать сообщения:    
Ответить на тему

Текущее время: Сегодня 22:16

Часовой пояс: GMT + 4



Вы не можете начинать темы
Вы не можете отвечать на сообщения
Вы не можете редактировать свои сообщения
Вы не можете удалять свои сообщения
Вы не можете голосовать в опросах
Вы не можете прикреплять файлы к сообщениям
Вы не можете скачивать файлы